TAIFUN With Song
Навигация
Вернуться   TAIFUN With Song > Music (обменник) > POP > Зарубежная Поп-Музыка
Расширенный поиск
А знаете ли Вы, что...
Чем прославился Боб Марли до того, как стать музыкантом?
«Знаменитый ямайский регги-музыкант Боб Марли в детстве был известен в своей деревне как талантливый предсказатель по линиям на ладонях.»
 
Опции темы

  #1
Старый 26.04.2018, 19:06
sergych
Координатор
Досье
 
Аватар для sergych
Релиз Andy Grammer - The Good Parts


2017 - Andy Grammer - The Good Parts




Исполнитель/Artist: Andy Grammer
Альбом/Album: The Good Parts
Год/Year: 2017
Жанр/Genre: pop, soul,country pop
Страна/Country: Соединённые Штаты
Рекорд-лейбл/Record label: S-Curve Records
Номер в каталоге/Catalogue #: 538343512
Формат/Format: Free Lossless Audio Codec (*.flac)
Качество/Quality: Lossless
Тип рипа/RIP Type: image+.cue
Продолжительность/Length: 00:42:37
Источник/Source: Собственный рип
Размер/Size: 328.2 MB

Сканы в комплекте

Треклист

01. Smoke Clears [0:02:59.04]
02. Freeze [0:03:07.54]
03. The Good Parts [0:03:39.35]
04. Spaceship [0:03:00.34]
05. Fresh Eyes [0:03:18.68]
06. 85 [0:03:21.65]
07. Always [0:03:01.42]
08. Workin' On It [0:03:34.25]
09. Grown Ass Man Child [0:03:08.10]
10. This Ain't Love [0:03:25.21]
11. Civil War [0:03:25.35]
12. Grow [0:03:07.26]
13. Give Love (feat. LunchMoney Lewis) [0:03:27.50]
[свернуть]

youtube.com

[свернуть]

EAC лог

Exact Audio Copy V1.3 from 2. September 2016

EAC extraction logfile from 26. April 2018, 15:32

Andy Grammer / The Good Parts

Used drive : ATAPI iHAS124 D Adapter: 0 ID: 2

Read mode : Secure
Utilize accurate stream : Yes
Defeat audio cache : Yes
Make use of C2 pointers : No

Read offset correction : 6
Overread into Lead-In and Lead-Out : No
Fill up missing offset samples with silence : Yes
Delete leading and trailing silent blocks : No
Null samples used in CRC calculations : Yes
Used interface : Installed external ASPI interface

Used output format : User Defined Encoder
Selected bitrate : 1024 kBit/s
Quality : High
Add ID3 tag : No
Command line compressor : C:\Program Files (x86)\Exact Audio Copy\Flac\flac.exe
Additional command line options : -6 -V -T "ARTIST=%artist%" -T "TITLE=%title%" -T "ALBUM=%albumtitle%" -T "DATE=%year%" -T "TRACKNUMBER=%tracknr%" -T "GENRE=%genre%" -T "COMMENT=%comment%" -T "BAND=%albuminterpret%" -T "ALBUMARTIST=%albuminterpret%" -T "COMPOSER=%composer%" %haslyrics%--tag-from-file=LYRICS="%lyricsfile%"%haslyrics% -T "DISCNUMBER=%cdnumber%" -T "TOTALDISCS=%totalcds%" -T "TOTALTRACKS=%numtracks%" %hascover%--picture="%coverfile%"%hascover% %source% -o %dest%


TOC of the extracted CD

Track | Start | Length | Start sector | End sector
---------------------------------------------------------
1 | 0:00.00 | 2:59.04 | 0 | 13428
2 | 2:59.04 | 3:07.54 | 13429 | 27507
3 | 6:06.58 | 3:39.35 | 27508 | 43967
4 | 9:46.18 | 3:00.34 | 43968 | 57501
5 | 12:46.52 | 3:18.68 | 57502 | 72419
6 | 16:05.45 | 3:21.65 | 72420 | 87559
7 | 19:27.35 | 3:01.42 | 87560 | 101176
8 | 22:29.02 | 3:34.25 | 101177 | 117251
9 | 26:03.27 | 3:08.10 | 117252 | 131361
10 | 29:11.37 | 3:25.21 | 131362 | 146757
11 | 32:36.58 | 3:25.35 | 146758 | 162167
12 | 36:02.18 | 3:07.26 | 162168 | 176218
13 | 39:09.44 | 3:27.50 | 176219 | 191793


Range status and errors

Selected range

Filename C:\mm\Andy Grammer\2017 - The Good Parts [538343512]\Andy Grammer - The Good Parts.wav

Peak level 100.0 %
Extraction speed 1.8 X
Range quality 100.0 %
Test CRC 010017BB
Copy CRC 010017BB
Copy OK

No errors occurred

End of status report

---- CUETools DB Plugin V2.1.6

[CTDB TOCID: INJAy93Qi7rVY6yQ.5Ys1VWCR3o-] found
Submit result: INJAy93Qi7rVY6yQ.5Ys1VWCR3o- has been confirmed
Track | CTDB Status
1 | (13/13) Accurately ripped
2 | (13/13) Accurately ripped
3 | (13/13) Accurately ripped
4 | (13/13) Accurately ripped
5 | (13/13) Accurately ripped
6 | (13/13) Accurately ripped
7 | (13/13) Accurately ripped
8 | (13/13) Accurately ripped
9 | (13/13) Accurately ripped
10 | (13/13) Accurately ripped
11 | (13/13) Accurately ripped
12 | (13/13) Accurately ripped
13 | (13/13) Accurately ripped
[свернуть]

Файл CUE

REM GENRE Pop
REM DATE 2017
REM DISCID C809FD0D
REM COMMENT "ExactAudioCopy v1.3"
PERFORMER "Andy Grammer"
TITLE "The Good Parts"
REM COMPOSER ""
FILE "Andy Grammer - The Good Parts.flac" WAVE
TRACK 01 AUDIO
TITLE "Smoke Clears"
PERFORMER "Andy Grammer"
REM COMPOSER ""
INDEX 01 00:00:00
TRACK 02 AUDIO
TITLE "Freeze"
PERFORMER "Andy Grammer"
REM COMPOSER ""
INDEX 01 02:59:04
TRACK 03 AUDIO
TITLE "The Good Parts"
PERFORMER "Andy Grammer"
REM COMPOSER ""
INDEX 01 06:06:58
TRACK 04 AUDIO
TITLE "Spaceship"
PERFORMER "Andy Grammer"
REM COMPOSER ""
INDEX 01 09:46:18
TRACK 05 AUDIO
TITLE "Fresh Eyes"
PERFORMER "Andy Grammer"
REM COMPOSER ""
INDEX 01 12:46:52
TRACK 06 AUDIO
TITLE "85"
PERFORMER "Andy Grammer"
REM COMPOSER ""
INDEX 01 16:05:45
TRACK 07 AUDIO
TITLE "Always"
PERFORMER "Andy Grammer"
REM COMPOSER ""
INDEX 01 19:27:35
TRACK 08 AUDIO
TITLE "Workin' On It"
PERFORMER "Andy Grammer"
REM COMPOSER ""
INDEX 01 22:29:02
TRACK 09 AUDIO
TITLE "Grown Ass Man Child"
PERFORMER "Andy Grammer"
REM COMPOSER ""
INDEX 01 26:03:27
TRACK 10 AUDIO
TITLE "This Ain't Love"
PERFORMER "Andy Grammer"
REM COMPOSER ""
INDEX 01 29:11:37
TRACK 11 AUDIO
TITLE "Civil War"
PERFORMER "Andy Grammer"
REM COMPOSER ""
INDEX 01 32:36:58
TRACK 12 AUDIO
TITLE "Grow"
PERFORMER "Andy Grammer"
REM COMPOSER ""
INDEX 01 36:02:18
TRACK 13 AUDIO
TITLE "Give Love (feat. LunchMoney Lewis)"
PERFORMER "Andy Grammer"
REM COMPOSER ""
INDEX 01 39:09:44
[свернуть]

Лог проверки качества

AUDIOCHECKER v2.0 beta (build 457) - by Dester -
~~~~~~~~~~~~~~~~~~~~~~~~~~~~~~~~~~
-=== НЕ РЕДАКТИРУЙТЕ ЭТОТ ФАЙЛ! ===-

Путь: ...\2017 - The Good Parts [538343512]

1 -=- Andy Grammer - The Good Parts.flac -=- CDDA (100%)

1571508
[свернуть]

Спектр частот

[свернуть]

Скачать Andy Grammer - The Good Parts



password: sergych
[свернуть]

Контрольная сумма (хеш-сумма) архива

MD5: 582772548005de7952cc4e8f36911ab5
[свернуть]
My opinion of release: 10/10
__________________
TAIFUN.Wings of Soul

Вверх
2 пользователя(ей) сказали cпасибо:
johnsilver (26.04.2018), swint68 (26.04.2018)
  #2
Старый 26.04.2018, 20:02
swint68
Меломан
Досье
 
Аватар для swint68
По умолчанию Re: Andy Grammer - The Good Parts

Приятный альбом.
Спасибо!

Вверх
Пользователь сказал cпасибо:
sergych (19.05.2018)
Похожие темы
Тема Автор Раздел Ответов Последнее сообщение
Релиз Andy Del - Different Point Of View PUPOKIN Jazz и Blues 0 02.11.2013 07:35
Status Quo - Spare Parts PUPOKIN Pop Rock 0 03.08.2009 10:27
Альбом Osada Vida - The Body Parts Party PUPOKIN Progressive Rock 0 29.01.2009 12:56
Andy Duguid PUPOKIN Trance 0 17.10.2008 09:54
Andy Moor DarkDan Trance 0 14.05.2008 12:58


Метки
2017 , andy grammer , country pop , pop , soul , the good parts

Опции темы

Ваши права в разделе
Вы не можете создавать новые темы
Вы не можете отвечать в темах
Вы не можете прикреплять вложения
Вы не можете редактировать свои сообщения

Быстрый переход



Текущее время: 17:52. Часовой пояс GMT +3.
Powered by vBulletin® Version 3.8.10
Copyright ©2000 - 2018, vBulletin Solutions, Inc. Перевод: zCarot
© 2008 - 2018 Taifun With Song
Яндекс.Метрика