TAIFUN With Song
Навигация
Jazz и Blues Гибкая ритмика, импровизационное начало, гармонии и мелодии - все это Jazz. Blues - жизнеутверждающая музыка, рожденная из душевной боли

А знаете ли Вы, что...
Влияние скрипки на пауков!
«Если заиграть перед пауками на скрипке, то они выйдут из своих укрытий!»
 
Опции темы

  #1
Старый 17.11.2017, 06:15
sergych
Координатор
Досье
 
Аватар для sergych
Релиз Candy Dulfer - Sax-A-Go-Go


1993 - Candy Dulfer - Sax-A-Go-Go




Исполнитель/Artist: Candy Dulfer
Альбом/Album: Sax-A-Go-Go
Год/Year: 1993
Жанр/Genre: Smooth jazz, funk, nu jazz
Страна/Country: Соединённые Штаты
Рекорд-лейбл/Record label: RCA Records / BMG Music
Номер в каталоге/Catalogue #: RCA 07863 66248-2
Формат/Format: Free Lossless Audio Codec (*.flac)
Качество/Quality: Lossless
Тип рипа/RIP Type: image+.cue
Продолжительность/Length: 00:52:33
Источник/Source: Собственный рип
Размер/Size: 408.3 MB

Сканы в комплекте

Треклист

01. 2 Funky [0:04:50.00]
02. Sax-A-Go-Go [0:04:54.62]
03. Mister Marvin [0:05:35.35]
04. Man In The Desert [0:05:36.23]
05. Bob's Jazz [0:04:53.15]
06. Jamming [0:05:21.32]
07. I Can't Make You Love Me [0:04:35.18]
08. Pick Up The Pieces [0:04:02.55]
09. Sunday Afternoon [0:08:07.00]
10. 2 Funky (Radio Version) [0:04:36.57]
[свернуть]

youtube.com

[свернуть]

Исполнители/Performers

Candy Dulfer - vocals, sampler, alto, tenor, baritone, soprano saxophone
Ulco Bed - bass, drums, guitar, vocals, keyboards, percussion
Frans Hendriks - percussion, additional drums
[свернуть]

EAC лог

Exact Audio Copy V1.3 from 2. September 2016

EAC extraction logfile from 14. November 2017, 9:28

Candy Dulfer / Sax-A-Go-Go

Used drive : ATAPI iHAS124 D Adapter: 0 ID: 2

Read mode : Secure
Utilize accurate stream : Yes
Defeat audio cache : Yes
Make use of C2 pointers : No

Read offset correction : 6
Overread into Lead-In and Lead-Out : No
Fill up missing offset samples with silence : Yes
Delete leading and trailing silent blocks : No
Null samples used in CRC calculations : Yes
Used interface : Installed external ASPI interface

Used output format : User Defined Encoder
Selected bitrate : 1024 kBit/s
Quality : High
Add ID3 tag : No
Command line compressor : C:\Program Files (x86)\Exact Audio Copy\Flac\flac.exe
Additional command line options : -6 -V -T "ARTIST=%artist%" -T "TITLE=%title%" -T "ALBUM=%albumtitle%" -T "DATE=%year%" -T "TRACKNUMBER=%tracknr%" -T "GENRE=%genre%" -T "COMMENT=%comment%" -T "BAND=%albuminterpret%" -T "ALBUMARTIST=%albuminterpret%" -T "COMPOSER=%composer%" %haslyrics%--tag-from-file=LYRICS="%lyricsfile%"%haslyrics% -T "DISCNUMBER=%cdnumber%" -T "TOTALDISCS=%totalcds%" -T "TOTALTRACKS=%numtracks%" %hascover%--picture="%coverfile%"%hascover% %source% -o %dest%


TOC of the extracted CD

Track | Start | Length | Start sector | End sector
---------------------------------------------------------
1 | 0:00.00 | 4:50.00 | 0 | 21749
2 | 4:50.00 | 4:54.62 | 21750 | 43861
3 | 9:44.62 | 5:35.35 | 43862 | 69021
4 | 15:20.22 | 5:36.23 | 69022 | 94244
5 | 20:56.45 | 4:53.15 | 94245 | 116234
6 | 25:49.60 | 5:21.32 | 116235 | 140341
7 | 31:11.17 | 4:35.18 | 140342 | 160984
8 | 35:46.35 | 4:02.55 | 160985 | 179189
9 | 39:49.15 | 8:07.00 | 179190 | 215714
10 | 47:56.15 | 4:36.57 | 215715 | 236471


Range status and errors

Selected range

Filename C:\mm\Candy Dulfer\1993 - Sax-A-Go-Go [RCA 07863 66248-2]\Candy Dulfer - Sax-A-Go-Go.wav

Peak level 95.5 %
Extraction speed 3.2 X
Range quality 100.0 %
Test CRC 1002C3DF
Copy CRC 1002C3DF
Copy OK

No errors occurred


AccurateRip summary

Track 1 accurately ripped (confidence 30) [46569B1F] (AR v2)
Track 2 accurately ripped (confidence 30) [1F50345E] (AR v2)
Track 3 accurately ripped (confidence 30) [FE40A6C9] (AR v2)
Track 4 accurately ripped (confidence 30) [BBE3948B] (AR v2)
Track 5 accurately ripped (confidence 30) [D2580708] (AR v2)
Track 6 accurately ripped (confidence 30) [76CBBBB4] (AR v2)
Track 7 accurately ripped (confidence 30) [33138774] (AR v2)
Track 8 accurately ripped (confidence 30) [E93FE4E3] (AR v2)
Track 9 accurately ripped (confidence 31) [B5E610C2] (AR v2)
Track 10 accurately ripped (confidence 30) [03FA87C8] (AR v2)

All tracks accurately ripped

End of status report

---- CUETools DB Plugin V2.1.6

[CTDB TOCID: _tCDEnoEdhJGOv17x1ftC6_CIC0-] found
Submit result: _tCDEnoEdhJGOv17x1ftC6_CIC0- has been confirmed
Track | CTDB Status
1 | (83/83) Accurately ripped
2 | (83/83) Accurately ripped
3 | (83/83) Accurately ripped
4 | (83/83) Accurately ripped
5 | (83/83) Accurately ripped
6 | (83/83) Accurately ripped
7 | (83/83) Accurately ripped
8 | (83/83) Accurately ripped
9 | (82/83) Accurately ripped
10 | (82/83) Accurately ripped
[свернуть]

Файл CUE

REM GENRE Jazz
REM DATE 1993
REM DISCID 950C500A
REM COMMENT "ExactAudioCopy v1.3"
PERFORMER "Candy Dulfer"
TITLE "Sax-A-Go-Go"
REM COMPOSER ""
FILE "Candy Dulfer - Sax-A-Go-Go.flac" WAVE
TRACK 01 AUDIO
TITLE "2 Funky"
PERFORMER "Candy Dulfer"
REM COMPOSER ""
INDEX 01 00:00:00
TRACK 02 AUDIO
TITLE "Sax-A-Go-Go"
PERFORMER "Candy Dulfer"
REM COMPOSER ""
INDEX 00 04:49:50
INDEX 01 04:50:00
TRACK 03 AUDIO
TITLE "Mister Marvin"
PERFORMER "Candy Dulfer"
REM COMPOSER ""
INDEX 01 09:44:62
TRACK 04 AUDIO
TITLE "Man In The Desert"
PERFORMER "Candy Dulfer"
REM COMPOSER ""
INDEX 01 15:20:22
TRACK 05 AUDIO
TITLE "Bob's Jazz"
PERFORMER "Candy Dulfer"
REM COMPOSER ""
INDEX 01 20:56:45
TRACK 06 AUDIO
TITLE "Jamming"
PERFORMER "Candy Dulfer"
REM COMPOSER ""
INDEX 00 25:49:12
INDEX 01 25:49:60
TRACK 07 AUDIO
TITLE "I Can't Make You Love Me"
PERFORMER "Candy Dulfer"
REM COMPOSER ""
INDEX 01 31:11:17
TRACK 08 AUDIO
TITLE "Pick Up The Pieces"
PERFORMER "Candy Dulfer"
REM COMPOSER ""
INDEX 00 35:44:55
INDEX 01 35:46:35
TRACK 09 AUDIO
TITLE "Sunday Afternoon"
PERFORMER "Candy Dulfer"
REM COMPOSER ""
INDEX 00 39:47:45
INDEX 01 39:49:15
TRACK 10 AUDIO
TITLE "2 Funky (Radio Version)"
PERFORMER "Candy Dulfer"
REM COMPOSER ""
INDEX 00 47:55:25
INDEX 01 47:56:15
[свернуть]

Лог проверки качества

AUDIOCHECKER v2.0 beta (build 457) - by Dester -
~~~~~~~~~~~~~~~~~~~~~~~~~~~~~~~~~~
-=== НЕ РЕДАКТИРУЙТЕ ЭТОТ ФАЙЛ! ===-

Путь: ...\1993 - Sax-A-Go-Go [RCA 07863 66248-2]

1 -=- Candy Dulfer - Sax-A-Go-Go.flac -=- CDDA (100%)

201216260
[свернуть]

Спектр частот

[свернуть]

Скачать Candy Dulfer - Sax-A-Go-Go



password: sergych
[свернуть]

Контрольная сумма (хеш-сумма) архива

MD5: 1e971f02832ce3f6dab861aa9c73c36c
[свернуть]
My opinion of release: 10/10
__________________
TAIFUN.Wings of Soul

Вверх
3 пользователя(ей) сказали cпасибо:
Показать список поблагодаривших
Похожие темы
Тема Автор Раздел Ответов Последнее сообщение
Альбом Candy Dulfer - Girl Night Out sergych Jazz и Blues 0 17.08.2017 22:50
Сборник Candy Dulfer - Funked Up & Chilled Out [2CD] aheron Jazz и Blues 0 12.08.2014 15:19
Альбом Candy Dulfer - SAXuality sergych Jazz и Blues 0 26.04.2014 12:25
Релиз Candy Dulfer - Crazy PUPOKIN Jazz и Blues 0 10.10.2011 09:58
Madonna - Hard Candy dmitriy89 Зарубежная Поп-Музыка 0 25.04.2008 18:42


Метки
1993 , candy dulfer , funk , nu jazz , sax-a-go-go , smooth jazz

Опции темы

Ваши права в разделе
Вы не можете создавать новые темы
Вы не можете отвечать в темах
Вы не можете прикреплять вложения
Вы не можете редактировать свои сообщения

Быстрый переход



Текущее время: 01:33. Часовой пояс GMT +3.
Powered by vBulletin® Version 3.8.10
Copyright ©2000 - 2018, vBulletin Solutions, Inc. Перевод: zCarot
© 2008 - 2018 Taifun With Song
Яндекс.Метрика