TAIFUN With Song
Навигация
Jazz и Blues Гибкая ритмика, импровизационное начало, гармонии и мелодии - все это Jazz. Blues - жизнеутверждающая музыка, рожденная из душевной боли

А знаете ли Вы, что...
Чем прославился Боб Марли до того, как стать музыкантом?
«Знаменитый ямайский регги-музыкант Боб Марли в детстве был известен в своей деревне как талантливый предсказатель по линиям на ладонях.»
 
Опции темы

  #1
Старый 23.10.2017, 06:01
sergych
Координатор
Досье
 
Аватар для sergych
Релиз Roberta Flack - Oasis


1988 - Roberta Flack - Oasis




Исполнитель/Artist: Roberta Flack
Альбом/Album: Oasis
Год/Year: 1988
Жанр/Genre: Smooth Jazz, Contemporary Jazz
Страна/Country: Соединённые Штаты
Рекорд-лейбл/Record label: Atlantic
Номер в каталоге/Catalogue #: 7 81916-2
Формат/Format: Free Lossless Audio Codec (*.flac)
Качество/Quality: Lossless
Тип рипа/RIP Type: image+.cue
Продолжительность/Length: 00:47:41
Источник/Source: Собственный рип
Размер/Size: 346.2 MB

Сканы в комплекте

Треклист

01. Oasis [0:06:11.07]
02. All Caught Up In Love [0:04:08.43]
03. Uh-Uh Ooh-Ooh Look Out (Here It Comes) [0:04:42.00]
04. Shock To My System [0:04:24.72]
05. You Who Brought Me Love [0:04:01.60]
06. Something Magic [0:04:06.48]
07. And So It Goes [0:03:34.72]
08. You Know What It's Like [0:04:44.60]
09. And So It Goes (Reprise) [0:01:01.55]
10. My Someone To Love [0:05:53.23]
11. (His Name) Brazil [0:04:51.42]
[свернуть]

youtube.com

[свернуть]

EAC лог

Exact Audio Copy V1.3 from 2. September 2016

EAC extraction logfile from 21. October 2017, 16:25

Roberta Flack / Oasis

Used drive : ATAPI iHAS124 D Adapter: 0 ID: 2

Read mode : Secure
Utilize accurate stream : Yes
Defeat audio cache : Yes
Make use of C2 pointers : No

Read offset correction : 6
Overread into Lead-In and Lead-Out : No
Fill up missing offset samples with silence : Yes
Delete leading and trailing silent blocks : No
Null samples used in CRC calculations : Yes
Used interface : Installed external ASPI interface

Used output format : User Defined Encoder
Selected bitrate : 1024 kBit/s
Quality : High
Add ID3 tag : No
Command line compressor : C:\Program Files (x86)\Exact Audio Copy\Flac\flac.exe
Additional command line options : -6 -V -T "ARTIST=%artist%" -T "TITLE=%title%" -T "ALBUM=%albumtitle%" -T "DATE=%year%" -T "TRACKNUMBER=%tracknr%" -T "GENRE=%genre%" -T "COMMENT=%comment%" -T "BAND=%albuminterpret%" -T "ALBUMARTIST=%albuminterpret%" -T "COMPOSER=%composer%" %haslyrics%--tag-from-file=LYRICS="%lyricsfile%"%haslyrics% -T "DISCNUMBER=%cdnumber%" -T "TOTALDISCS=%totalcds%" -T "TOTALTRACKS=%numtracks%" %hascover%--picture="%coverfile%"%hascover% %source% -o %dest%


TOC of the extracted CD

Track | Start | Length | Start sector | End sector
---------------------------------------------------------
1 | 0:00.00 | 6:11.07 | 0 | 27831
2 | 6:11.07 | 4:08.43 | 27832 | 46474
3 | 10:19.50 | 4:42.00 | 46475 | 67624
4 | 15:01.50 | 4:24.72 | 67625 | 87496
5 | 19:26.47 | 4:01.60 | 87497 | 105631
6 | 23:28.32 | 4:06.48 | 105632 | 124129
7 | 27:35.05 | 3:34.72 | 124130 | 140251
8 | 31:10.02 | 4:44.60 | 140252 | 161611
9 | 35:54.62 | 1:01.55 | 161612 | 166241
10 | 36:56.42 | 5:53.23 | 166242 | 192739
11 | 42:49.65 | 4:51.42 | 192740 | 214606


Range status and errors

Selected range

Filename C:\mm\Roberta Flack\1988 - Oasis [7 81916-2]\Roberta Flack - Oasis.wav

Peak level 100.0 %
Extraction speed 8.5 X
Range quality 100.0 %
Test CRC 933FE32F
Copy CRC 933FE32F
Copy OK

No errors occurred


AccurateRip summary

Track 1 accurately ripped (confidence 9) [53A12BB4] (AR v2)
Track 2 accurately ripped (confidence 9) [42CD9347] (AR v2)
Track 3 accurately ripped (confidence 9) [577797C5] (AR v2)
Track 4 accurately ripped (confidence 9) [1D34E17B] (AR v2)
Track 5 accurately ripped (confidence 9) [2B112BDE] (AR v2)
Track 6 accurately ripped (confidence 9) [D1F8CEF4] (AR v2)
Track 7 accurately ripped (confidence 9) [311777E7] (AR v2)
Track 8 accurately ripped (confidence 9) [E5BF81FE] (AR v2)
Track 9 accurately ripped (confidence 9) [240E0CFA] (AR v2)
Track 10 accurately ripped (confidence 9) [7F80D94F] (AR v2)
Track 11 accurately ripped (confidence 8) [07F0328D] (AR v2)

All tracks accurately ripped

End of status report

---- CUETools DB Plugin V2.1.6

[CTDB TOCID: 92eAw4v520spYfCEtbq4zDxQLJU-] found
Submit result: 92eAw4v520spYfCEtbq4zDxQLJU- has been confirmed
Track | CTDB Status
1 | (12/12) Accurately ripped
2 | (12/12) Accurately ripped
3 | (12/12) Accurately ripped
4 | (12/12) Accurately ripped
5 | (12/12) Accurately ripped
6 | (12/12) Accurately ripped
7 | (12/12) Accurately ripped
8 | (12/12) Accurately ripped
9 | (12/12) Accurately ripped
10 | (12/12) Accurately ripped
11 | (12/12) Accurately ripped
[свернуть]

Файл CUE

REM GENRE Soul
REM DATE 1988
REM DISCID 890B2D0B
REM COMMENT "ExactAudioCopy v1.3"
PERFORMER "Roberta Flack"
TITLE "Oasis"
REM COMPOSER ""
FILE "Roberta Flack - Oasis.flac" WAVE
TRACK 01 AUDIO
TITLE "Oasis"
PERFORMER "Roberta Flack"
REM COMPOSER ""
INDEX 01 00:00:00
TRACK 02 AUDIO
TITLE "All Caught Up In Love"
PERFORMER "Roberta Flack"
REM COMPOSER ""
INDEX 00 06:09:60
INDEX 01 06:11:07
TRACK 03 AUDIO
TITLE "Uh-Uh Ooh-Ooh Look Out (Here It Comes)"
PERFORMER "Roberta Flack"
REM COMPOSER ""
INDEX 00 10:16:72
INDEX 01 10:19:50
TRACK 04 AUDIO
TITLE "Shock To My System"
PERFORMER "Roberta Flack"
REM COMPOSER ""
INDEX 00 15:00:02
INDEX 01 15:01:50
TRACK 05 AUDIO
TITLE "You Who Brought Me Love"
PERFORMER "Roberta Flack"
REM COMPOSER ""
INDEX 00 19:25:50
INDEX 01 19:26:47
TRACK 06 AUDIO
TITLE "Something Magic"
PERFORMER "Roberta Flack"
REM COMPOSER ""
INDEX 00 23:26:02
INDEX 01 23:28:32
TRACK 07 AUDIO
TITLE "And So It Goes"
PERFORMER "Roberta Flack"
REM COMPOSER ""
INDEX 00 27:33:02
INDEX 01 27:35:05
TRACK 08 AUDIO
TITLE "You Know What It's Like"
PERFORMER "Roberta Flack"
REM COMPOSER ""
INDEX 00 31:09:60
INDEX 01 31:10:02
TRACK 09 AUDIO
TITLE "And So It Goes (Reprise)"
PERFORMER "Roberta Flack"
REM COMPOSER ""
INDEX 01 35:54:62
TRACK 10 AUDIO
TITLE "My Someone To Love"
PERFORMER "Roberta Flack"
REM COMPOSER ""
INDEX 00 36:55:00
INDEX 01 36:56:42
TRACK 11 AUDIO
TITLE "(His Name) Brazil"
PERFORMER "Roberta Flack"
REM COMPOSER ""
INDEX 00 42:48:07
INDEX 01 42:49:65
[свернуть]

Лог проверки качества

AUDIOCHECKER v2.0 beta (build 457) - by Dester -
~~~~~~~~~~~~~~~~~~~~~~~~~~~~~~~~~~
-=== НЕ РЕДАКТИРУЙТЕ ЭТОТ ФАЙЛ! ===-

Путь: ...\1988 - Oasis [7 81916-2]

1 -=- Roberta Flack - Oasis.flac -=- MPEG (95%)

94698228
[свернуть]

Спектр частот

[свернуть]

Скачать Roberta Flack - Oasis



password: sergych
[свернуть]

Контрольная сумма (хеш-сумма) архива

MD5: 68cbf1687ab7a6f397ca68e910eac14d
[свернуть]
My opinion of release: 10/10
__________________
TAIFUN.Wings of Soul

Вверх
Похожие темы
Тема Автор Раздел Ответов Последнее сообщение
Альбом Roberta Kelly- Zodiac Lady PUPOKIN Disco 0 29.06.2010 10:27
Лайам Галлахер: Oasis больше нет PUPOKIN Новости в мире музыки 0 12.10.2009 09:20
Релиз Oasis - Working Class Hero PUPOKIN Alternative Rock 0 08.09.2009 11:48
Альбом Eric Marienthal - Oasis sergych Jazz и Blues 0 04.05.2009 21:03
Oasis - Dig Out Your Soul PUPOKIN Alternative Rock 0 25.09.2008 11:06


Метки
1988 , contemporary jazz , oasis , roberta flack , smooth jazz

Опции темы

Ваши права в разделе
Вы не можете создавать новые темы
Вы не можете отвечать в темах
Вы не можете прикреплять вложения
Вы не можете редактировать свои сообщения

Быстрый переход



Текущее время: 12:27. Часовой пояс GMT +3.
Powered by vBulletin® Version 3.8.10
Copyright ©2000 - 2018, vBulletin Solutions, Inc. Перевод: zCarot
© 2008 - 2018 Taifun With Song
Яндекс.Метрика