TAIFUN With Song
Навигация
R&B Ссылки на музыку в этом стиле

А знаете ли Вы, что...
Какой русский музыкальный инструмент мы называем цыганским?
«Семиструнную гитару во всём мире называют русской гитарой, а у нас также распространено название цыганская гитара.»
 
Опции темы

  #1
Старый 03.09.2017, 11:11
sergych
Координатор
Досье
 
Аватар для sergych
Релиз Stevie Wonder - In Square Circle


1985(2009) - Stevie Wonder - In Square Circle




Исполнитель/Artist: Stevie Wonder
Альбом/Album: In Square Circle
Год/Year: 1985
Ремастеринг/Remaster: 2009
Жанр/Genre: R&B, soul, electronic, adult contemporary
Страна/Country: Соединённые Штаты
Рекорд-лейбл/Record label: Tamla
Номер в каталоге/Catalogue #: 6134 TD
Формат/Format: Free Lossless Audio Codec (*.flac)
Качество/Quality: Lossless
Тип рипа/RIP Type: image+.cue
Продолжительность/Length: 00:49:25
Источник/Source: Собственный рип
Размер/Size: 350.5 MB

Сканы в комплекте

Треклист

01. Part-Time Lover [0:04:12.55]
02. I Love You Too Much [0:05:27.27]
03. Whereabouts [0:04:17.68]
04. Stranger On The Shore Of Love [0:05:00.22]
05. Never In Your Sun [0:04:06.63]
06. Spiritual Walkers [0:05:14.00]
07. Land Of La La [0:05:12.15]
08. Go Home [0:05:18.02]
09. Overjoyed [0:03:42.45]
10. Its Wrong (Apartheid) [0:06:53.25]
[свернуть]

youtube.com

[свернуть]

EAC лог

Exact Audio Copy V1.3 from 2. September 2016

EAC extraction logfile from 12. August 2017, 15:46

Stevie Wonder / In Square Circle

Used drive : PLEXTOR DVDR PX-716A Adapter: 1 ID: 0

Read mode : Secure
Utilize accurate stream : Yes
Defeat audio cache : Yes
Make use of C2 pointers : No

Read offset correction : 30
Overread into Lead-In and Lead-Out : No
Fill up missing offset samples with silence : Yes
Delete leading and trailing silent blocks : No
Null samples used in CRC calculations : Yes
Used interface : Installed external ASPI interface

Used output format : User Defined Encoder
Selected bitrate : 1024 kBit/s
Quality : High
Add ID3 tag : No
Command line compressor : C:\Program Files (x86)\Exact Audio Copy\Flac\flac.exe
Additional command line options : -6 -V -T "ARTIST=%artist%" -T "TITLE=%title%" -T "ALBUM=%albumtitle%" -T "DATE=%year%" -T "TRACKNUMBER=%tracknr%" -T "GENRE=%genre%" -T "COMMENT=%comment%" -T "BAND=%albuminterpret%" -T "ALBUMARTIST=%albuminterpret%" -T "COMPOSER=%composer%" %haslyrics%--tag-from-file=LYRICS="%lyricsfile%"%haslyrics% -T "DISCNUMBER=%cdnumber%" -T "TOTALDISCS=%totalcds%" -T "TOTALTRACKS=%numtracks%" %hascover%--picture="%coverfile%"%hascover% %source% -o %dest%


TOC of the extracted CD

Track | Start | Length | Start sector | End sector
---------------------------------------------------------
1 | 0:00.00 | 4:12.55 | 0 | 18954
2 | 4:12.55 | 5:27.27 | 18955 | 43506
3 | 9:40.07 | 4:17.68 | 43507 | 62849
4 | 13:58.00 | 5:00.22 | 62850 | 85371
5 | 18:58.22 | 4:06.63 | 85372 | 103884
6 | 23:05.10 | 5:14.00 | 103885 | 127434
7 | 28:19.10 | 5:12.15 | 127435 | 150849
8 | 33:31.25 | 5:18.02 | 150850 | 174701
9 | 38:49.27 | 3:42.45 | 174702 | 191396
10 | 42:31.72 | 6:53.25 | 191397 | 222396


Range status and errors

Selected range

Filename C:\mm\Stevie Wonder\1985 - In Square Circle [6134 TD]\Stevie Wonder - In Square Circle.wav

Peak level 92.4 %
Extraction speed 10.1 X
Range quality 100.0 %
Test CRC CF227A58
Copy CRC CF227A58
Copy OK

No errors occurred

End of status report

---- CUETools DB Plugin V2.1.6

[CTDB TOCID: 8GD6qWzkxz_GubP5j8GJh9cHf.k-] found
Submit result: 8GD6qWzkxz_GubP5j8GJh9cHf.k- has been confirmed
Track | CTDB Status
1 | (7/7) Accurately ripped
2 | (6/7) Accurately ripped
3 | (7/7) Accurately ripped
4 | (7/7) Accurately ripped
5 | (7/7) Accurately ripped
6 | (7/7) Accurately ripped
7 | (7/7) Accurately ripped
8 | (7/7) Accurately ripped
9 | (7/7) Accurately ripped
10 | (7/7) Accurately ripped
[свернуть]

Файл CUE

REM GENRE Soul
REM DATE 1985
REM DISCID 680B950A
REM COMMENT "ExactAudioCopy v1.3"
PERFORMER "Stevie Wonder"
TITLE "In Square Circle"
REM COMPOSER ""
FILE "Stevie Wonder - In Square Circle.flac" WAVE
TRACK 01 AUDIO
TITLE "Part-Time Lover"
PERFORMER "Stevie Wonder"
REM COMPOSER ""
INDEX 01 00:00:00
TRACK 02 AUDIO
TITLE "I Love You Too Much"
PERFORMER "Stevie Wonder"
REM COMPOSER ""
INDEX 01 04:12:55
TRACK 03 AUDIO
TITLE "Whereabouts"
PERFORMER "Stevie Wonder"
REM COMPOSER ""
INDEX 01 09:40:07
TRACK 04 AUDIO
TITLE "Stranger On The Shore Of Love"
PERFORMER "Stevie Wonder"
REM COMPOSER ""
INDEX 01 13:58:00
TRACK 05 AUDIO
TITLE "Never In Your Sun"
PERFORMER "Stevie Wonder"
REM COMPOSER ""
INDEX 01 18:58:22
TRACK 06 AUDIO
TITLE "Spiritual Walkers"
PERFORMER "Stevie Wonder"
REM COMPOSER ""
INDEX 01 23:05:10
TRACK 07 AUDIO
TITLE "Land Of La La"
PERFORMER "Stevie Wonder"
REM COMPOSER ""
INDEX 01 28:19:10
TRACK 08 AUDIO
TITLE "Go Home"
PERFORMER "Stevie Wonder"
REM COMPOSER ""
INDEX 01 33:31:25
TRACK 09 AUDIO
TITLE "Overjoyed"
PERFORMER "Stevie Wonder"
REM COMPOSER ""
INDEX 01 38:49:27
TRACK 10 AUDIO
TITLE "Its Wrong (Apartheid)"
PERFORMER "Stevie Wonder"
REM COMPOSER ""
INDEX 01 42:31:72
[свернуть]

Лог проверки качества

AUDIOCHECKER v2.0 beta (build 457) - by Dester -
~~~~~~~~~~~~~~~~~~~~~~~~~~~~~~~~~~
-=== НЕ РЕДАКТИРУЙТЕ ЭТОТ ФАЙЛ! ===-

Путь: ...\1985 - In Square Circle [6134 TD]

1 -=- Stevie Wonder - In Square Circle.flac -=- MPEG (95%)

94455044
[свернуть]

Спектр частот

[свернуть]

Скачать Stevie Wonder - In Square Circle



password: sergych
[свернуть]

Контрольная сумма (хеш-сумма) архива

MD5: a496aa57a3108bd35df0648d35b32a5b
[свернуть]
My opinion of release: 10/10

Release info RInfo

Альбом получил Grammy в номинации Best Male R&B Vocal Performance на 28-й церемонии Grammy Awards (4-я награда Стиви в этой категории и 13-я в целом).
__________________
TAIFUN.Wings of Soul

Вверх
3 пользователя(ей) сказали cпасибо:
Показать список поблагодаривших
  #2
Старый 03.09.2017, 19:32
TAIFUN
Admin
Досье
 
Аватар для TAIFUN
По умолчанию Re: Stevie Wonder - In Square Circle

С удовольствием слушаю этот лёгкий альбом. В настроение попал.)
__________________
I love the music
FAQ по форуму
Правила форума
Жизнь человека - это не самое главное в его жизни...

Вверх
Пользователь сказал cпасибо:
sergych (05.09.2017)
Похожие темы
Тема Автор Раздел Ответов Последнее сообщение
Сборник Stevie Nicks - Crystal Visions....The Very Best of Stevie Nicks sergych Soft Rock 1 29.08.2017 12:25
Альбом Stevie Wonder - The Best Of Stevie Wonder {20th Century Masters. The Christmas Collection} sergych R&B 0 14.11.2015 16:39
Альбом Inner Circle - Sweat (A La La La La Long) - The Best Of Inner Circle TAIFUN Reggae 0 09.04.2015 04:38
Релиз Circle II Circle - Consequence Of Power PUPOKIN Progressive Metal 0 26.09.2010 09:51
Arkells - Jackson Square PUPOKIN Indie Rock 0 04.11.2008 19:14


Метки
1985 , adult contemporary , electronic , in square circle , r&b , soul , stevie wonder

Опции темы

Ваши права в разделе
Вы не можете создавать новые темы
Вы не можете отвечать в темах
Вы не можете прикреплять вложения
Вы не можете редактировать свои сообщения

Быстрый переход



Текущее время: 04:48. Часовой пояс GMT +3.
Powered by vBulletin® Version 3.8.10
Copyright ©2000 - 2018, vBulletin Solutions, Inc. Перевод: zCarot
© 2008 - 2018 Taifun With Song
Яндекс.Метрика