TAIFUN With Song
Навигация
Вернуться   TAIFUN With Song > Music (обменник) > Rock
Расширенный поиск
А знаете ли Вы, что...
Где недавно был совершён акт каннибализма с согласия жертвы?
«В 2001 году в немецком Ротенбурге Армин Майвес поместил в интернете серию каннибальских объявлений в поисках молодого парня в возрасте от 18 до 30 лет, желающего умереть и быть съеденным. На одно из объявлений откликнулся Бернд Брандес. Он, по своему собственному согласию, был убит и частично съеден Майвесом, позже приговорённым к пожизненному заключению. На этот сюжет написана песня «Mein Teil» группы Rammstein.»
 
Опции темы

  #1
Старый 29.01.2017, 13:08
sergych
Координатор
Досье
 
Аватар для sergych
Релиз Queen - The Works


1984(2011) - Queen - The Works




Исполнитель/Artist: Queen
Альбом/Album: The Works {Deluxe Version}
Год/Year: 1984
Ремастеринг/Remaster: 2011
Жанр/Genre: Rock
Страна/Country: Аргентина
Рекорд-лейбл/Record label: Universal Music
Номер в каталоге/Catalogue #: 2771766
Формат/Format: Free Lossless Audio Codec (*.flac)
Качество/Quality: Lossless
Тип рипа/RIP Type: image+.cue
Продолжительность/Length: 01:02:51
Источник/Source: Собственный рип
Размер/Size: 518.0 MB

Сканы в комплекте

Треклист

CD1
CD2
[свернуть]

youtube.com

[свернуть]

Исполнители/Performers

Freddie Mercury – lead and backing vocals, piano, keyboards, sampler on "Radio Ga Ga"
Brian May – lead and acoustic guitars, backing vocals, keyboards, lead vocals on bridge of "I Go Crazy"
Roger Taylor – drums, electronic drums, backing vocals, keyboards on "Machines (Or Back to Humans)", Vocoder on "Radio Ga Ga" and "Machines (Or Back to Humans)", sampler and programming on "Radio Ga Ga"
John Deacon – bass guitar, rhythm guitar, keyboards and programming on "I Want to Break Free"

Additional personnel
Fred Mandel – keyboards on "Radio Ga Ga", "I Want to Break Free" and "Hammer to Fall", piano on "Man on the Prowl"(ending), sampler on "Radio Ga Ga"
[свернуть]

EAC лог

CD1
CD2
[свернуть]

Файл CUE

CD1
CD2
[свернуть]

Лог проверки качества

AUDIOCHECKER v2.0 beta (build 457) - by Dester -
~~~~~~~~~~~~~~~~~~~~~~~~~~~~~~~~~~
-=== НЕ РЕДАКТИРУЙТЕ ЭТОТ ФАЙЛ! ===-

Путь: ...\1984(2011) - The Works [2771766]

1 -=- Queen - The Works {Deluxe Version} (CD1).flac -=- CDDA (100%)
2 -=- Queen - The Works {Deluxe Version} (CD2).flac -=- CDDA (100%)

Сводка 100,00% CDDA

209723940
[свернуть]

Спектр частот



[свернуть]

Скачать Queen - The Works



password: sergych
[свернуть]

Контрольная сумма (хеш-сумма) архива

MD5: 3467fd565746a663a18ef28afc4f1abe
[свернуть]
My opinion of release: 10/10
__________________
TAIFUN.Wings of Soul

Вверх
2 пользователя(ей) сказали cпасибо:
swint68 (29.01.2017), TAIFUN (08.02.2018)
  #2
Старый 03.02.2018, 19:40
sergych
Координатор
Досье
 
Аватар для sergych
Релиз Re: Queen - The Works


1984(1994) - Queen - The Works




Исполнитель/Artist: Queen
Альбом/Album: The Works
Год/Year: 1984
Ремастеринг/Remaster: 1994
Жанр/Genre: Rock
Страна/Country: Германия
Рекорд-лейбл/Record label: Parlophone
Номер в каталоге/Catalogue #: 0777 7 89498 24
Формат/Format: Free Lossless Audio Codec (*.flac)
Качество/Quality: Lossless
Тип рипа/RIP Type: image+.cue
Продолжительность/Length: 00:37:34
Источник/Source: Собственный рип
Размер/Size: 262.1 MB

Сканы в комплекте

Треклист

01. Radio Ga Ga [0:05:49.10]
02. Tear It Up [0:03:28.37]
03. It's A Hard Life [0:04:08.38]
04. Man On The Prowl [0:03:28.42]
05. Machines (or 'Back To Humans') [0:05:10.35]
06. I Want To Break Free [0:03:21.00]
07. Keep Passing The Open Windows [0:05:22.38]
08. Hammer To Fall [0:04:28.72]
09. Is This The World We Created...? [0:02:16.28]
[свернуть]

youtube.com

[свернуть]

Исполнители/Performers

Freddie Mercury – lead and backing vocals, piano, keyboards, sampler on "Radio Ga Ga"
Brian May – lead and acoustic guitars, backing vocals, keyboards, lead vocals on bridge of "I Go Crazy"
Roger Taylor – drums, electronic drums, backing vocals, keyboards on "Machines (Or Back to Humans)", Vocoder on "Radio Ga Ga" and "Machines (Or Back to Humans)", sampler and programming on "Radio Ga Ga"
John Deacon – bass guitar, rhythm guitar, keyboards and programming on "I Want to Break Free"

Additional personnel
Fred Mandel – keyboards on "Radio Ga Ga", "I Want to Break Free" and "Hammer to Fall", piano on "Man on the Prowl"(ending), sampler on "Radio Ga Ga"
[свернуть]

EAC лог

Exact Audio Copy V1.3 from 2. September 2016

EAC extraction logfile from 29. January 2018, 19:24

Queen / The Works

Used drive : ATAPI iHAS124 D Adapter: 0 ID: 2

Read mode : Secure
Utilize accurate stream : Yes
Defeat audio cache : Yes
Make use of C2 pointers : No

Read offset correction : 0
Overread into Lead-In and Lead-Out : No
Fill up missing offset samples with silence : Yes
Delete leading and trailing silent blocks : No
Null samples used in CRC calculations : Yes
Used interface : Installed external ASPI interface

Used output format : User Defined Encoder
Selected bitrate : 1024 kBit/s
Quality : High
Add ID3 tag : No
Command line compressor : C:\Program Files (x86)\Exact Audio Copy\Flac\flac.exe
Additional command line options : -6 -V -T "ARTIST=%artist%" -T "TITLE=%title%" -T "ALBUM=%albumtitle%" -T "DATE=%year%" -T "TRACKNUMBER=%tracknr%" -T "GENRE=%genre%" -T "COMMENT=%comment%" -T "BAND=%albuminterpret%" -T "ALBUMARTIST=%albuminterpret%" -T "COMPOSER=%composer%" %haslyrics%--tag-from-file=LYRICS="%lyricsfile%"%haslyrics% -T "DISCNUMBER=%cdnumber%" -T "TOTALDISCS=%totalcds%" -T "TOTALTRACKS=%numtracks%" %hascover%--picture="%coverfile%"%hascover% %source% -o %dest%


TOC of the extracted CD

Track | Start | Length | Start sector | End sector
---------------------------------------------------------
1 | 0:00.00 | 5:49.10 | 0 | 26184
2 | 5:49.10 | 3:28.37 | 26185 | 41821
3 | 9:17.47 | 4:08.38 | 41822 | 60459
4 | 13:26.10 | 3:28.42 | 60460 | 76101
5 | 16:54.52 | 5:10.35 | 76102 | 99386
6 | 22:05.12 | 3:21.00 | 99387 | 114461
7 | 25:26.12 | 5:22.38 | 114462 | 138649
8 | 30:48.50 | 4:28.72 | 138650 | 158821
9 | 35:17.47 | 2:16.28 | 158822 | 169049


Range status and errors

Selected range

Filename C:\mm\Queen\1984(1994) - The Works [0777 7 89498 24]\Queen - The Works.wav

Peak level 100.0 %
Extraction speed 1.6 X
Range quality 100.0 %
Test CRC 8B91765A
Copy CRC 8B91765A
Copy OK

No errors occurred

End of status report

---- CUETools DB Plugin V2.1.6

[CTDB TOCID: wM6H3Zn5mo1scCcXWGu8wmECxGY-] found
Submit result: already submitted
Track | CTDB Status
1 | (375/377) Accurately ripped
2 | (375/377) Accurately ripped
3 | (375/377) Accurately ripped
4 | (375/377) Accurately ripped
5 | (374/377) Accurately ripped
6 | (374/377) Accurately ripped
7 | (373/377) Accurately ripped
8 | (371/377) Accurately ripped
9 | (373/377) Accurately ripped
[свернуть]

Файл CUE

REM GENRE Rock
REM DATE 1994
REM DISCID 6E08CE09
REM COMMENT "ExactAudioCopy v1.3"
PERFORMER "Queen"
TITLE "The Works"
REM COMPOSER ""
FILE "Queen - The Works.flac" WAVE
TRACK 01 AUDIO
TITLE "Radio Ga Ga"
PERFORMER "Queen"
REM COMPOSER ""
INDEX 01 00:00:00
TRACK 02 AUDIO
TITLE "Tear It Up"
PERFORMER "Queen"
REM COMPOSER ""
INDEX 00 05:47:60
INDEX 01 05:49:10
TRACK 03 AUDIO
TITLE "It's A Hard Life"
PERFORMER "Queen"
REM COMPOSER ""
INDEX 00 09:16:35
INDEX 01 09:17:47
TRACK 04 AUDIO
TITLE "Man On The Prowl"
PERFORMER "Queen"
REM COMPOSER ""
INDEX 00 13:26:07
INDEX 01 13:26:10
TRACK 05 AUDIO
TITLE "Machines (or 'Back To Humans')"
PERFORMER "Queen"
REM COMPOSER ""
INDEX 00 16:53:40
INDEX 01 16:54:52
TRACK 06 AUDIO
TITLE "I Want To Break Free"
PERFORMER "Queen"
REM COMPOSER ""
INDEX 00 22:04:12
INDEX 01 22:05:12
TRACK 07 AUDIO
TITLE "Keep Passing The Open Windows"
PERFORMER "Queen"
REM COMPOSER ""
INDEX 00 25:26:10
INDEX 01 25:26:12
TRACK 08 AUDIO
TITLE "Hammer To Fall"
PERFORMER "Queen"
REM COMPOSER ""
INDEX 00 30:48:47
INDEX 01 30:48:50
TRACK 09 AUDIO
TITLE "Is This The World We Created...?"
PERFORMER "Queen"
REM COMPOSER ""
INDEX 00 35:15:47
INDEX 01 35:17:47
[свернуть]

Лог проверки качества

AUDIOCHECKER v2.0 beta (build 457) - by Dester -
~~~~~~~~~~~~~~~~~~~~~~~~~~~~~~~~~~
-=== НЕ РЕДАКТИРУЙТЕ ЭТОТ ФАЙЛ! ===-

Путь: ...\1984(1994) - The Works [0777 7 89498 24]

1 -=- Queen - The Works.flac -=- CDDA (100%)

86272500
[свернуть]

Спектр частот

[свернуть]

Скачать Queen - The Works



password: sergych
[свернуть]

Контрольная сумма (хеш-сумма) архива

MD5: dc9b41dd42ffc0646cb6d8cdb76e99e6
[свернуть]
My opinion of release: 10/10

Release info RInfo

Немецкий ремастер без допов.
Есть, правда, пара-тройка моментов, наводящих на мысль о фейковости данного конкретного издания.
С другой стороны, - свечку на ними не держал
__________________
TAIFUN.Wings of Soul

Вверх
3 пользователя(ей) сказали cпасибо:
Показать список поблагодаривших
  #3
Старый 04.02.2018, 02:16
johnsilver
Меломан
Досье
 
Аватар для johnsilver
По умолчанию Re: Queen - The Works

Неофициальный релиз похоже, судя по тому что здесь: и скорей всего российский.

Вверх
2 пользователя(ей) сказали cпасибо:
sergych (06.02.2018), TAIFUN (08.02.2018)
  #4
Старый 06.02.2018, 23:57
sergych
Координатор
Досье
 
Аватар для sergych
По умолчанию Re: Queen - The Works

johnsilver, вполне возможно. Этот диск у меня уже давно, и в списке своих покупок в инете (в отличие от "аргентинца") я его не обнаружил, значит брал дома и, скорее всего, "с рук".
__________________
TAIFUN.Wings of Soul

Вверх
2 пользователя(ей) сказали cпасибо:
johnsilver (07.02.2018), TAIFUN (08.02.2018)
Похожие темы
Тема Автор Раздел Ответов Последнее сообщение
VA Chillstep Works vol.4 PUPOKIN Ambient 0 16.09.2011 09:31
VA Best Works PUPOKIN Deep House 0 10.05.2011 08:45
Сборник Queen - Queen Rocks PUPOKIN Hard Rock 0 13.01.2009 12:24
Faith No More - The Works ReAl Hard Rock 0 20.05.2008 14:15


Метки
1984 , 2011 , queen , rock , the works {deluxe version}

Опции темы

Ваши права в разделе
Вы не можете создавать новые темы
Вы не можете отвечать в темах
Вы не можете прикреплять вложения
Вы не можете редактировать свои сообщения

Быстрый переход



Текущее время: 14:44. Часовой пояс GMT +3.
Powered by vBulletin® Version 3.8.10
Copyright ©2000 - 2018, vBulletin Solutions, Inc. Перевод: zCarot
© 2008 - 2018 Taifun With Song
Яндекс.Метрика