TAIFUN With Song
Навигация
R&B Ссылки на музыку в этом стиле

А знаете ли Вы, что...
Какой русский поп-певец имеет самую большую армию поклонников?
«Витас — самый популярный современный русский исполнитель в Китае, что ставит его на первое место среди всех русских исполнителей по общему числу поклонников в мире.»
 
Опции темы

  #1
Старый 12.03.2015, 19:50
sergych
Координатор
Досье
 
Аватар для sergych
Релиз Mariah Carey - Butterfly


1997 - Mariah Carey - Butterfly




Исполнитель/Artist: Mariah Carey
Альбом/Album: Butterfly
Год/Year: 1997
Жанр/Genre: R&B, pop, hip-hop
Страна/Country: Австрия
Рекорд-лейбл/Record label: Columbia / Sony Music
Номер в каталоге/Catalogue #: 488537 2
Формат/Format: Free Lossless Audio Codec (*.flac)
Качество/Quality: Lossless
Тип рипа/RIP Type: image+.cue
Продолжительность/Length: 01:07:37
Источник/Source: Собственный рип
Размер/Size: 545.7 MB

Сканы в комплекте

Треклист

01. Honey [0:05:01.60]
02. Butterfly [0:04:35.40]
03. My All [0:03:52.35]
04. The Roof [0:05:14.35]
05. Fourth of July [0:04:22.52]
06. Breakdown [0:04:44.53]
07. Babydoll [0:05:07.12]
08. Close My Eyes [0:04:21.65]
09. Whenever You Call [0:04:21.63]
10. Fly Away (Butterfly Reprise) [0:03:49.17]
11. The Beautiful Ones [0:06:59.58]
12. Outside [0:04:47.70]
13. Honey (So So Def Radio Mix) [0:03:59.17]
14. Honey (Def Club Mix) [0:06:17.68]
[свернуть]

youtube.com

[свернуть]

Исполнители/Performers

Mariah Carey – lead vocals, background vocals
Walter Afanasieff – keyboards, additional keyboards, synthesizers,
Dave Hall – synthesizers, keyboards, rhythm programming
David Cole – keyboards
Sean "Puffy" Combs – background vocals, keyboards, synthesizers
Cory Rooney – drum programming, keyboards
Kamall Fareed – programming, drums
James T. Alfano – programming, guitars
Anthony Henderson – guitars, background vocals, keyboards
Charles Scruggs – bass, background vocals, keyboards
Cindy Mizelle, Kelly Price, Melonie Daniels, Shanrae Price – background vocals
[свернуть]

EAC лог

Exact Audio Copy V1.0 beta 3 from 29. August 2011

EAC extraction logfile from 12. March 2015, 0:12

Mariah Carey / Butterfly

Used drive : ATAPI iHAS124 D Adapter: 0 ID: 2

Read mode : Secure
Utilize accurate stream : Yes
Defeat audio cache : Yes
Make use of C2 pointers : No

Read offset correction : 6
Overread into Lead-In and Lead-Out : No
Fill up missing offset samples with silence : Yes
Delete leading and trailing silent blocks : No
Null samples used in CRC calculations : Yes
Used interface : Installed external ASPI interface

Used output format : User Defined Encoder
Selected bitrate : 1024 kBit/s
Quality : High
Add ID3 tag : No
Command line compressor : C:\Program Files (x86)\Exact Audio Copy\Flac\flac.exe
Additional command line options : -6 -V -T "ARTIST=%artist%" -T "TITLE=%title%" -T "ALBUM=%albumtitle%" -T "DATE=%year%" -T "TRACKNUMBER=%tracknr%" -T "GENRE=%genre%" -T "COMMENT=%comment%" -T "BAND=%albuminterpret%" -T "COMPOSER=%composer%" %haslyrics%--tag-from-file=LYRICS="%lyricsfile%"%haslyrics% -T "DISCNUMBER=%cdnumber%" -T "TOTALDISCS=%totalcds%" -T "TOTALTRACKS=%numtracks%" %hascover%--picture="%coverfile%"%hascover% %source% -o %dest%


TOC of the extracted CD

Track | Start | Length | Start sector | End sector
---------------------------------------------------------
1 | 0:00.00 | 5:01.60 | 0 | 22634
2 | 5:01.60 | 4:35.40 | 22635 | 43299
3 | 9:37.25 | 3:52.35 | 43300 | 60734
4 | 13:29.60 | 5:14.35 | 60735 | 84319
5 | 18:44.20 | 4:22.52 | 84320 | 104021
6 | 23:06.72 | 4:44.53 | 104022 | 125374
7 | 27:51.50 | 5:07.12 | 125375 | 148411
8 | 32:58.62 | 4:21.65 | 148412 | 168051
9 | 37:20.52 | 4:21.63 | 168052 | 187689
10 | 41:42.40 | 3:49.17 | 187690 | 204881
11 | 45:31.57 | 6:59.58 | 204882 | 236364
12 | 52:31.40 | 4:47.70 | 236365 | 257959
13 | 57:19.35 | 3:59.17 | 257960 | 275901
14 | 61:18.52 | 6:17.68 | 275902 | 304244


Range status and errors

Selected range

Filename C:\mm\Mariah Carey\1997 - Butterfly [488537 2]\Mariah Carey - Butterfly.wav

Peak level 100.0 %
Extraction speed 10.3 X
Range quality 100.0 %
Test CRC 1ECC7828
Copy CRC 1ECC7828
Copy OK

No errors occurred


AccurateRip summary

Track 1 accurately ripped (confidence 88) [0A89026B] (AR v2)
Track 2 accurately ripped (confidence 89) [D5F866EC] (AR v2)
Track 3 accurately ripped (confidence 88) [37D4EDE2] (AR v2)
Track 4 accurately ripped (confidence 87) [7581020B] (AR v2)
Track 5 accurately ripped (confidence 88) [B916CE90] (AR v2)
Track 6 accurately ripped (confidence 88) [977EA1ED] (AR v2)
Track 7 accurately ripped (confidence 88) [6AD2966E] (AR v2)
Track 8 accurately ripped (confidence 87) [382B677C] (AR v2)
Track 9 accurately ripped (confidence 88) [F32C2F55] (AR v2)
Track 10 accurately ripped (confidence 88) [7A7A158B] (AR v2)
Track 11 accurately ripped (confidence 87) [4E2D18F9] (AR v2)
Track 12 accurately ripped (confidence 88) [672DA12A] (AR v2)
Track 13 accurately ripped (confidence 87) [E2F2CBE0] (AR v2)
Track 14 accurately ripped (confidence 85) [65CC0039] (AR v2)

All tracks accurately ripped

End of status report
[свернуть]

Файл CUE

REM GENRE R&B
REM DATE 1997
REM DISCID B50FD80E
REM COMMENT "ExactAudioCopy v1.0b3"
PERFORMER "Mariah Carey"
TITLE "Butterfly"
FILE "Mariah Carey - Butterfly.flac" WAVE
TRACK 01 AUDIO
TITLE "Honey"
PERFORMER "Mariah Carey"
INDEX 01 00:00:00
TRACK 02 AUDIO
TITLE "Butterfly"
PERFORMER "Mariah Carey"
INDEX 00 05:00:17
INDEX 01 05:01:60
TRACK 03 AUDIO
TITLE "My All"
PERFORMER "Mariah Carey"
INDEX 00 09:35:72
INDEX 01 09:37:25
TRACK 04 AUDIO
TITLE "The Roof"
PERFORMER "Mariah Carey"
INDEX 00 13:28:37
INDEX 01 13:29:60
TRACK 05 AUDIO
TITLE "Fourth of July"
PERFORMER "Mariah Carey"
INDEX 00 18:44:05
INDEX 01 18:44:20
TRACK 06 AUDIO
TITLE "Breakdown"
PERFORMER "Mariah Carey"
INDEX 01 23:06:72
TRACK 07 AUDIO
TITLE "Babydoll"
PERFORMER "Mariah Carey"
INDEX 00 27:50:50
INDEX 01 27:51:50
TRACK 08 AUDIO
TITLE "Close My Eyes"
PERFORMER "Mariah Carey"
INDEX 00 32:58:10
INDEX 01 32:58:62
TRACK 09 AUDIO
TITLE "Whenever You Call"
PERFORMER "Mariah Carey"
INDEX 00 37:18:70
INDEX 01 37:20:52
TRACK 10 AUDIO
TITLE "Fly Away (Butterfly Reprise)"
PERFORMER "Mariah Carey"
INDEX 00 41:41:42
INDEX 01 41:42:40
TRACK 11 AUDIO
TITLE "The Beautiful Ones"
PERFORMER "Mariah Carey"
INDEX 01 45:31:57
TRACK 12 AUDIO
TITLE "Outside"
PERFORMER "Mariah Carey"
INDEX 00 52:29:42
INDEX 01 52:31:40
TRACK 13 AUDIO
TITLE "Honey (So So Def Radio Mix)"
PERFORMER "Mariah Carey"
INDEX 00 57:17:62
INDEX 01 57:19:35
TRACK 14 AUDIO
TITLE "Honey (Def Club Mix)"
PERFORMER "Mariah Carey"
INDEX 00 61:17:62
INDEX 01 61:18:52
[свернуть]

Лог проверки качества

AUDIOCHECKER v2.0 beta (build 457) - by Dester -
~~~~~~~~~~~~~~~~~~~~~~~~~~~~~~~~~~
-=== НЕ РЕДАКТИРУЙТЕ ЭТОТ ФАЙЛ! ===-

Путь: ...\1997 - Butterfly [488537 2]

1 -=- Mariah Carey - Butterfly.flac -=- CDDA (99%)

256069524
[свернуть]

Спектр частот

[свернуть]

Скачать Mariah Carey - Butterfly



password: sergych
[свернуть]
My opinion of release: 8/10
__________________
TAIFUN.Wings of Soul

Вверх
5 пользователя(ей) сказали cпасибо:
Показать список поблагодаривших
  #2
Старый 13.10.2017, 19:07
sergych
Координатор
Досье
 
Аватар для sergych
Релиз Re: Mariah Carey - Butterfly


1997 - Mariah Carey - Butterfly




Исполнитель/Artist: Mariah Carey
Альбом/Album: Butterfly
Год/Year: 1997
Жанр/Genre: R&B, pop, hip-hop
Страна/Country: Япония
Рекорд-лейбл/Record label: Sony Music
Номер в каталоге/Catalogue #: SRCS 8500
Формат/Format: Free Lossless Audio Codec (*.flac)
Качество/Quality: Lossless
Тип рипа/RIP Type: image+.cue
Продолжительность/Length: 01:07:37
Источник/Source: Собственный рип
Размер/Size: 567.2 MB

Сканы в комплекте

Треклист

01. Honey [0:05:01.60]
02. Butterfly [0:04:35.40]
03. My All [0:03:52.35]
04. The Roof [0:05:14.35]
05. Fourth Of July [0:04:22.52]
06. Breakdown [0:04:44.53]
07. Babydoll [0:05:07.12]
08. Close My Eyes [0:04:21.65]
09. Whenever You Call [0:04:21.63]
10. Fly Away (Butterfly Reprise) [0:03:49.17]
11. The Beautiful Ones [0:06:59.58]
12. Outside [0:04:47.70]
13. Honey (So So Def Radio Mix) (feat. Da Brat & JD) [0:03:59.17]
14. Honey (Def Club Mix) [0:06:17.68]
[свернуть]

youtube.com

[свернуть]

Исполнители/Performers

Mariah Carey – lead vocals, background vocals
Walter Afanasieff – keyboards, additional keyboards, synthesizers,
Dave Hall – synthesizers, keyboards, rhythm programming
David Cole – keyboards
Sean "Puffy" Combs – background vocals, keyboards, synthesizers
Cory Rooney – drum programming, keyboards
Kamall Fareed – programming, drums
James T. Alfano – programming, guitars
Anthony Henderson – guitars, background vocals, keyboards
Charles Scruggs – bass, background vocals, keyboards
Cindy Mizelle, Kelly Price, Melonie Daniels, Shanrae Price – background vocals
[свернуть]

EAC лог

Exact Audio Copy V1.3 from 2. September 2016

EAC extraction logfile from 6. August 2017, 11:39

Mariah Carey / Butterfly

Used drive : PLEXTOR DVDR PX-716A Adapter: 1 ID: 0

Read mode : Secure
Utilize accurate stream : Yes
Defeat audio cache : Yes
Make use of C2 pointers : No

Read offset correction : 30
Overread into Lead-In and Lead-Out : No
Fill up missing offset samples with silence : Yes
Delete leading and trailing silent blocks : No
Null samples used in CRC calculations : Yes
Used interface : Installed external ASPI interface

Used output format : User Defined Encoder
Selected bitrate : 1024 kBit/s
Quality : High
Add ID3 tag : No
Command line compressor : C:\Program Files (x86)\Exact Audio Copy\Flac\flac.exe
Additional command line options : -6 -V -T "ARTIST=%artist%" -T "TITLE=%title%" -T "ALBUM=%albumtitle%" -T "DATE=%year%" -T "TRACKNUMBER=%tracknr%" -T "GENRE=%genre%" -T "COMMENT=%comment%" -T "BAND=%albuminterpret%" -T "ALBUMARTIST=%albuminterpret%" -T "COMPOSER=%composer%" %haslyrics%--tag-from-file=LYRICS="%lyricsfile%"%haslyrics% -T "DISCNUMBER=%cdnumber%" -T "TOTALDISCS=%totalcds%" -T "TOTALTRACKS=%numtracks%" %hascover%--picture="%coverfile%"%hascover% %source% -o %dest%


TOC of the extracted CD

Track | Start | Length | Start sector | End sector
---------------------------------------------------------
1 | 0:00.00 | 5:01.60 | 0 | 22634
2 | 5:01.60 | 4:35.40 | 22635 | 43299
3 | 9:37.25 | 3:52.35 | 43300 | 60734
4 | 13:29.60 | 5:14.35 | 60735 | 84319
5 | 18:44.20 | 4:22.52 | 84320 | 104021
6 | 23:06.72 | 4:44.53 | 104022 | 125374
7 | 27:51.50 | 5:07.12 | 125375 | 148411
8 | 32:58.62 | 4:21.65 | 148412 | 168051
9 | 37:20.52 | 4:21.63 | 168052 | 187689
10 | 41:42.40 | 3:49.17 | 187690 | 204881
11 | 45:31.57 | 6:59.58 | 204882 | 236364
12 | 52:31.40 | 4:47.70 | 236365 | 257959
13 | 57:19.35 | 3:59.17 | 257960 | 275901
14 | 61:18.52 | 6:17.68 | 275902 | 304244


Range status and errors

Selected range

Filename C:\mm\Mariah Carey\1997 - Butterfly [SRCS 8500]\Mariah Carey - Butterfly.wav

Peak level 100.0 %
Extraction speed 13.6 X
Range quality 100.0 %
Test CRC 1EE82E76
Copy CRC 1EE82E76
Copy OK

No errors occurred

End of status report

---- CUETools DB Plugin V2.1.6

[CTDB TOCID: .LVbl.IQ3r46bIvyFUdiwOspNdo-] found
Submit result: .LVbl.IQ3r46bIvyFUdiwOspNdo- has been confirmed
Track | CTDB Status
1 | (470/475) Accurately ripped
2 | (469/475) Accurately ripped
3 | (471/475) Accurately ripped
4 | (471/475) Accurately ripped
5 | (467/475) Accurately ripped
6 | (466/475) Accurately ripped
7 | (469/475) Accurately ripped
8 | (471/475) Accurately ripped
9 | (469/475) Accurately ripped
10 | (466/475) Accurately ripped
11 | (463/475) Accurately ripped
12 | (467/475) Accurately ripped
13 | (463/475) Accurately ripped
14 | (462/475) Accurately ripped
[свернуть]

Файл CUE

REM GENRE R&B
REM DATE 1997
REM DISCID B50FD80E
REM COMMENT "ExactAudioCopy v1.3"
PERFORMER "Mariah Carey"
TITLE "Butterfly"
REM COMPOSER ""
FILE "Mariah Carey - Butterfly.flac" WAVE
TRACK 01 AUDIO
TITLE "Honey"
PERFORMER "Mariah Carey"
REM COMPOSER ""
INDEX 01 00:00:00
TRACK 02 AUDIO
TITLE "Butterfly"
PERFORMER "Mariah Carey"
REM COMPOSER ""
INDEX 00 05:00:17
INDEX 01 05:01:60
TRACK 03 AUDIO
TITLE "My All"
PERFORMER "Mariah Carey"
REM COMPOSER ""
INDEX 00 09:35:72
INDEX 01 09:37:25
TRACK 04 AUDIO
TITLE "The Roof"
PERFORMER "Mariah Carey"
REM COMPOSER ""
INDEX 00 13:28:37
INDEX 01 13:29:60
TRACK 05 AUDIO
TITLE "Fourth Of July"
PERFORMER "Mariah Carey"
REM COMPOSER ""
INDEX 00 18:44:05
INDEX 01 18:44:20
TRACK 06 AUDIO
TITLE "Breakdown"
PERFORMER "Mariah Carey"
REM COMPOSER ""
INDEX 01 23:06:72
TRACK 07 AUDIO
TITLE "Babydoll"
PERFORMER "Mariah Carey"
REM COMPOSER ""
INDEX 00 27:50:50
INDEX 01 27:51:50
TRACK 08 AUDIO
TITLE "Close My Eyes"
PERFORMER "Mariah Carey"
REM COMPOSER ""
INDEX 00 32:58:10
INDEX 01 32:58:62
TRACK 09 AUDIO
TITLE "Whenever You Call"
PERFORMER "Mariah Carey"
REM COMPOSER ""
INDEX 00 37:18:70
INDEX 01 37:20:52
TRACK 10 AUDIO
TITLE "Fly Away (Butterfly Reprise)"
PERFORMER "Mariah Carey"
REM COMPOSER ""
INDEX 00 41:41:42
INDEX 01 41:42:40
TRACK 11 AUDIO
TITLE "The Beautiful Ones"
PERFORMER "Mariah Carey"
REM COMPOSER ""
INDEX 01 45:31:57
TRACK 12 AUDIO
TITLE "Outside"
PERFORMER "Mariah Carey"
REM COMPOSER ""
INDEX 00 52:29:42
INDEX 01 52:31:40
TRACK 13 AUDIO
TITLE "Honey (So So Def Radio Mix)"
PERFORMER "Mariah Carey feat. Da Brat & JD"
REM COMPOSER ""
INDEX 00 57:17:62
INDEX 01 57:19:35
TRACK 14 AUDIO
TITLE "Honey (Def Club Mix)"
PERFORMER "Mariah Carey"
REM COMPOSER ""
INDEX 00 61:17:62
INDEX 01 61:18:52
[свернуть]

Лог проверки качества

AUDIOCHECKER v2.0 beta (build 457) - by Dester -
~~~~~~~~~~~~~~~~~~~~~~~~~~~~~~~~~~
-=== НЕ РЕДАКТИРУЙТЕ ЭТОТ ФАЙЛ! ===-

Путь: ...\1997 - Butterfly [SRCS 8500]

1 -=- Mariah Carey - Butterfly.flac -=- CDDA (99%)

256069524
[свернуть]

Спектр частот

[свернуть]

Скачать Mariah Carey - Butterfly



password: sergych
[свернуть]

Контрольная сумма (хеш-сумма) архива

MD5: 4cb8b2b9efc3c3dfc485ff2c6a44254d
[свернуть]
My opinion of release: 9/10

Release info RInfo

Собственно, такой же как и австрийский, тока японец
__________________
TAIFUN.Wings of Soul

Вверх
3 пользователя(ей) сказали cпасибо:
Показать список поблагодаривших
Похожие темы
Тема Автор Раздел Ответов Последнее сообщение
Релиз Mariah Carey - Lovesongs PUPOKIN R&B 0 19.02.2010 10:09
Mariah Carey - The Remixes Chapter II PUPOKIN R&B 0 24.10.2008 10:02
DJ Finesse - The Offical Best of Mariah Carey LUСIAN R&B 0 17.05.2008 17:37
Альбом Mariah Carey - E=MC2 LUСIAN R&B 0 20.04.2008 00:25


Метки
1997 , butterfly , hip-hop , mariah carey , pop , r&b

Опции темы

Ваши права в разделе
Вы не можете создавать новые темы
Вы не можете отвечать в темах
Вы не можете прикреплять вложения
Вы не можете редактировать свои сообщения

Быстрый переход



Текущее время: 21:06. Часовой пояс GMT +3.
Powered by vBulletin® Version 3.8.10
Copyright ©2000 - 2018, vBulletin Solutions, Inc. Перевод: zCarot
© 2008 - 2018 Taifun With Song
Яндекс.Метрика