TAIFUN With Song
Навигация
R&B Ссылки на музыку в этом стиле

А знаете ли Вы, что...
Кто начал писать музыку в 5 лет?
«Вольфганг Амадей Моцарт начал сочинять музыку в 5 лет.»
 
Опции темы

  #1
Старый 29.11.2013, 17:27
sergych
Координатор
Досье
 
Аватар для sergych
Релиз Anita Baker - Body & Soul [Single]


1994 - Anita Baker - Body & Soul [Single]




Исполнитель/Artist: Anita Baker
Альбом/Album: Body & Soul [Single]
Год/Year: 1994
Жанр/Genre: r&b, soul, soul jazz
Страна/Country: Германия
Рекорд-лейбл/Record label: WEA
Номер в каталоге/Catalogue #: 7559-66192-2 / EKR190CD
Формат/Format: Free Lossless Audio Codec (*.flac)
Качество/Quality: Lossless
Тип рипа/RIP Type: image+.cue
Продолжительность/Length: 00:17:54
Источник/Source: Собственный рип
Размер/Size: 140.7 MB

Сканы в комплекте

Треклист

01 - Body & Soul
02 - Sweet Love
03 - Caught Up In The Rapture
04 - Giving You The Best That I Got
[свернуть]

youtube.com

[свернуть]

EAC лог

Exact Audio Copy V1.0 beta 3 from 29. August 2011

EAC extraction logfile from 29. November 2013, 19:56

Anita Baker / Body & Soul (CD Single)

Used drive : ATAPI iHAS124 D Adapter: 0 ID: 2

Read mode : Secure
Utilize accurate stream : Yes
Defeat audio cache : Yes
Make use of C2 pointers : No

Read offset correction : 6
Overread into Lead-In and Lead-Out : No
Fill up missing offset samples with silence : Yes
Delete leading and trailing silent blocks : No
Null samples used in CRC calculations : Yes
Used interface : Installed external ASPI interface

Used output format : User Defined Encoder
Selected bitrate : 1024 kBit/s
Quality : High
Add ID3 tag : No
Command line compressor : C:\Program Files (x86)\Exact Audio Copy\Flac\flac.exe
Additional command line options : -6 -V -T "ARTIST=%artist%" -T "TITLE=%title%" -T "ALBUM=%albumtitle%" -T "DATE=%year%" -T "TRACKNUMBER=%tracknr%" -T "GENRE=%genre%" -T "COMMENT=%comment%" -T "BAND=%albuminterpret%" -T "COMPOSER=%composer%" %haslyrics%--tag-from-file=LYRICS="%lyricsfile%"%haslyrics% -T "DISCNUMBER=%cdnumber%" -T "TOTALDISCS=%totalcds%" -T "TOTALTRACKS=%numtracks%" %hascover%--picture="%coverfile%"%hascover% %source% -o %dest%


TOC of the extracted CD

Track | Start | Length | Start sector | End sector
---------------------------------------------------------
1 | 0:00.00 | 3:58.57 | 0 | 17906
2 | 3:58.57 | 4:22.58 | 17907 | 37614
3 | 8:21.40 | 5:15.22 | 37615 | 61261
4 | 13:36.62 | 4:17.70 | 61262 | 80606


Range status and errors

Selected range

Filename C:\mm\Anita Baker\1994 - Body & Soul [7559-66192-2 _ EKR190CD]\Anita Baker - Body & Soul (CD Single).wav

Peak level 96.5 %
Extraction speed 6.7 X
Range quality 100.0 %
Test CRC 201E1F4F
Copy CRC 201E1F4F
Copy OK

No errors occurred


AccurateRip summary

Track 1 accurately ripped (confidence 2) [B716252D] (AR v1)
Track 2 accurately ripped (confidence 3) [A4E66271] (AR v1)
Track 3 accurately ripped (confidence 2) [5521CEAF] (AR v1)
Track 4 accurately ripped (confidence 2) [1F838F7A] (AR v1)

All tracks accurately ripped

End of status report

---- CUETools DB Plugin V2.1.3

[CTDB TOCID: VehFg1YXXJ6JIzMTuhYAZdPZg_8-] found, Submit result: VehFg1YXXJ6JIzMTuhYAZdPZg_8- has been confirmed
[f7f69886] (1/1) Accurately ripped
[свернуть]

Файл CUE

REM GENRE Soul
REM DATE 1994
REM DISCID 21043204
REM COMMENT "ExactAudioCopy v1.0b3"
PERFORMER "Anita Baker"
TITLE "Body & Soul (CD Single)"
FILE "Anita Baker - Body & Soul (CD Single).flac" WAVE
TRACK 01 AUDIO
TITLE "Body & Soul"
PERFORMER "Anita Baker"
INDEX 01 00:00:00
TRACK 02 AUDIO
TITLE "Sweet Love"
PERFORMER "Anita Baker"
INDEX 00 03:57:07
INDEX 01 03:58:57
TRACK 03 AUDIO
TITLE "Caught Up In The Rapture"
PERFORMER "Anita Baker"
INDEX 00 08:19:17
INDEX 01 08:21:40
TRACK 04 AUDIO
TITLE "Giving You The Best That I Got"
PERFORMER "Anita Baker"
INDEX 00 13:34:62
INDEX 01 13:36:62
[свернуть]

Лог проверки качества

AUDIOCHECKER v2.0 beta (build 457) - by Dester - [Ссылки могут видеть только зарегистрированные и активированные пользователи.]
[Only registered and activated users can see links.]
~~~~~~~~~~~~~~~~~~~~~~~~~~~~~~~~~~
-=== НЕ РЕДАКТИРУЙТЕ ЭТОТ ФАЙЛ! ===-

Путь: ...\1994 - Body & Soul [7559-66192-2 _ EKR190CD]

1 -=- Anita Baker - Body & Soul (CD Single).flac -=- CDDA (100%)

209146404
[свернуть]

Спектр частот

[свернуть]

Скачать Anita Baker - Body & Soul [Single]

[Ссылки могут видеть только зарегистрированные и активированные пользователи.]
[Only registered and activated users can see links.]

password: sergych
[свернуть]
My opinion of release: 10/10
__________________
TAIFUN.Wings of Soul

Вверх
Похожие темы
Тема Автор Раздел Ответов Последнее сообщение
Альбом Anita Baker - My Everything sergych R&B 0 14.09.2013 15:32
Сборник Anita Baker - Sweet Love. The Very Best Of Anita Baker sergych R&B 0 14.09.2013 12:25
Альбом Anita Baker - Giving You The Best That I Got sergych R&B 0 14.09.2013 10:28
Альбом Anita Baker - Rapture sergych R&B 0 14.09.2013 10:04
Альбом Anita Baker - The Songstress sergych R&B 0 14.09.2013 09:40


Метки
1994 , anita baker , body & soul [single] , r&b , soul , soul jazz

Опции темы

Ваши права в разделе
Вы не можете создавать новые темы
Вы не можете отвечать в темах
Вы не можете прикреплять вложения
Вы не можете редактировать свои сообщения

Быстрый переход



Текущее время: 04:10. Часовой пояс GMT +3.
Powered by vBulletin® Version 3.8.10
Copyright ©2000 - 2018, vBulletin Solutions, Inc. Перевод: zCarot
© 2008 - 2018 Taifun With Song
Яндекс.Метрика