TAIFUN With Song
Навигация
Вернуться   TAIFUN With Song > Music (обменник) > POP > Зарубежная Поп-Музыка
Расширенный поиск
А знаете ли Вы, что...
Почему учитель вокала остановил занятия с Джонни Кэшем и посоветовал ему никогда больше не учиться пению?
«Легенда кантри Джонни Кэш рос в небогатой фермерской семье. Увидев его талант к пению, мать собрала денег, чтобы Джонни посещал уроки вокала. Однако после трёх уроков учитель остановил обучение и сказал ему, чтобы тот никогда больше не брал подобных уроков и не отклонялся от данного природой голоса.»
 
Опции темы

  #1
Старый 09.11.2013, 20:43
sergych
Координатор
Досье
 
Аватар для sergych
Релиз Michael Bolton - The One Thing


1993 - Michael Bolton - The One Thing




Исполнитель/Artist: Michael Bolton
Альбом/Album: The One Thing
Год/Year: 1993
Жанр/Genre: Pop, Pop Rock, Soft Rock, Soul
Страна/Country: Австрия
Рекорд-лейбл/Record label: Columbia
Номер в каталоге/Catalogue #: 474355 2
Формат/Format: Free Lossless Audio Codec (*.flac)
Качество/Quality: Lossless
Тип рипа/RIP Type: tracks+.cue
Продолжительность/Length: 00:56:19
Источник/Source: Собственный рип
Размер/Size: 439 MB

Сканы в комплекте

Треклист

01 - Said I Loved You... But I Lied
02 - I'm Not Made of Steel
03 - The One Thing
04 - Soul of My Soul
05 - Completely
06 - Lean on Me
07 - Ain't Got Nothing If You Ain't Got Love
08 - A Time for Letting Go
09 - Never Get Enough of Your Love
10 - In the Arms of Love
11 - The Voice of My Heart
[свернуть]

youtube.com

[свернуть]

EAC лог

Exact Audio Copy V1.0 beta 3 from 29. August 2011

EAC extraction logfile from 9. November 2013, 23:02

Michael Bolton / The One Thing

Used drive : ATAPI iHAS124 D Adapter: 0 ID: 2

Read mode : Secure
Utilize accurate stream : Yes
Defeat audio cache : Yes
Make use of C2 pointers : No

Read offset correction : 6
Overread into Lead-In and Lead-Out : No
Fill up missing offset samples with silence : Yes
Delete leading and trailing silent blocks : No
Null samples used in CRC calculations : Yes
Used interface : Installed external ASPI interface
Gap handling : Appended to previous track

Used output format : User Defined Encoder
Selected bitrate : 1024 kBit/s
Quality : High
Add ID3 tag : No
Command line compressor : C:\Program Files (x86)\Exact Audio Copy\Flac\flac.exe
Additional command line options : -6 -V -T "ARTIST=%artist%" -T "TITLE=%title%" -T "ALBUM=%albumtitle%" -T "DATE=%year%" -T "TRACKNUMBER=%tracknr%" -T "GENRE=%genre%" -T "COMMENT=%comment%" -T "BAND=%albuminterpret%" -T "COMPOSER=%composer%" %haslyrics%--tag-from-file=LYRICS="%lyricsfile%"%haslyrics% -T "DISCNUMBER=%cdnumber%" -T "TOTALDISCS=%totalcds%" -T "TOTALTRACKS=%numtracks%" %hascover%--picture="%coverfile%"%hascover% %source% -o %dest%


TOC of the extracted CD

Track | Start | Length | Start sector | End sector
---------------------------------------------------------
1 | 0:00.00 | 5:06.00 | 0 | 22949
2 | 5:06.00 | 5:11.32 | 22950 | 46306
3 | 10:17.32 | 5:09.38 | 46307 | 69519
4 | 15:26.70 | 5:42.22 | 69520 | 95191
5 | 21:09.17 | 4:25.50 | 95192 | 115116
6 | 25:34.67 | 5:20.53 | 115117 | 139169
7 | 30:55.45 | 5:04.10 | 139170 | 161979
8 | 35:59.55 | 5:38.67 | 161980 | 187396
9 | 41:38.47 | 5:06.55 | 187397 | 210401
10 | 46:45.27 | 4:48.10 | 210402 | 232011
11 | 51:33.37 | 4:47.38 | 232012 | 253574


Track 1

Filename C:\mm\Michael Bolton\1993 - The One Thing [474355 2]\01 - Said I Loved You... But I Lied.wav

Pre-gap length 0:00:02.00

Peak level 95.2 %
Extraction speed 5.4 X
Track quality 100.0 %
Test CRC FA1B978F
Copy CRC FA1B978F
Accurately ripped (confidence 76) [8167084A] (AR v2)
Copy OK

Track 2

Filename C:\mm\Michael Bolton\1993 - The One Thing [474355 2]\02 - I'm Not Made of Steel.wav

Pre-gap length 0:00:00.63

Peak level 98.1 %
Extraction speed 5.5 X
Track quality 99.9 %
Test CRC E023CC6E
Copy CRC E023CC6E
Accurately ripped (confidence 77) [623557D4] (AR v2)
Copy OK

Track 3

Filename C:\mm\Michael Bolton\1993 - The One Thing [474355 2]\03 - The One Thing.wav

Peak level 96.1 %
Extraction speed 6.9 X
Track quality 100.0 %
Test CRC A1129878
Copy CRC A1129878
Accurately ripped (confidence 77) [8A6809C0] (AR v2)
Copy OK

Track 4

Filename C:\mm\Michael Bolton\1993 - The One Thing [474355 2]\04 - Soul of My Soul.wav

Peak level 98.6 %
Extraction speed 6.6 X
Track quality 99.9 %
Test CRC 658EB7DE
Copy CRC 658EB7DE
Accurately ripped (confidence 77) [E75DBEE8] (AR v2)
Copy OK

Track 5

Filename C:\mm\Michael Bolton\1993 - The One Thing [474355 2]\05 - Completely.wav

Peak level 96.1 %
Extraction speed 7.9 X
Track quality 100.0 %
Test CRC E209A0D2
Copy CRC E209A0D2
Accurately ripped (confidence 77) [3DE1284E] (AR v2)
Copy OK

Track 6

Filename C:\mm\Michael Bolton\1993 - The One Thing [474355 2]\06 - Lean on Me.wav

Peak level 97.0 %
Extraction speed 7.4 X
Track quality 99.9 %
Test CRC 168136B6
Copy CRC 168136B6
Accurately ripped (confidence 77) [2305274E] (AR v2)
Copy OK

Track 7

Filename C:\mm\Michael Bolton\1993 - The One Thing [474355 2]\07 - Ain't Got Nothing If You Ain't Got Love.wav

Peak level 96.7 %
Extraction speed 7.8 X
Track quality 99.9 %
Test CRC 26F8E01F
Copy CRC 26F8E01F
Accurately ripped (confidence 76) [7B9E7AE9] (AR v2)
Copy OK

Track 8

Filename C:\mm\Michael Bolton\1993 - The One Thing [474355 2]\08 - A Time for Letting Go.wav

Peak level 96.7 %
Extraction speed 9.5 X
Track quality 100.0 %
Test CRC 68F53A4F
Copy CRC 68F53A4F
Accurately ripped (confidence 76) [9E5D8F4D] (AR v2)
Copy OK

Track 9

Filename C:\mm\Michael Bolton\1993 - The One Thing [474355 2]\09 - Never Get Enough of Your Love.wav

Peak level 97.4 %
Extraction speed 8.6 X
Track quality 99.9 %
Test CRC B4806876
Copy CRC B4806876
Accurately ripped (confidence 76) [7ACA06A1] (AR v2)
Copy OK

Track 10

Filename C:\mm\Michael Bolton\1993 - The One Thing [474355 2]\10 - In the Arms of Love.wav

Peak level 95.7 %
Extraction speed 8.7 X
Track quality 99.9 %
Test CRC BC8EF35B
Copy CRC BC8EF35B
Accurately ripped (confidence 77) [4D508BC0] (AR v2)
Copy OK

Track 11

Filename C:\mm\Michael Bolton\1993 - The One Thing [474355 2]\11 - The Voice of My Heart.wav

Pre-gap length 0:00:00.15

Peak level 100.0 %
Extraction speed 9.0 X
Track quality 99.9 %
Test CRC 227C0222
Copy CRC 227C0222
Accurately ripped (confidence 76) [F26205A3] (AR v2)
Copy OK


All tracks accurately ripped

No errors occurred

End of status report
[свернуть]

Файл CUE

REM DATE 1993
REM DISCID 920D350B
REM COMMENT "ExactAudioCopy v1.0b3"
PERFORMER "Michael Bolton"
TITLE "The One Thing"
FILE "01 - Said I Loved You... But I Lied.wav" WAVE
TRACK 01 AUDIO
TITLE "Said I Loved You... But I Lied"
PERFORMER "Michael Bolton"
INDEX 01 00:00:00
TRACK 02 AUDIO
TITLE "I'm Not Made of Steel"
PERFORMER "Michael Bolton"
INDEX 00 05:05:12
FILE "02 - I'm Not Made of Steel.wav" WAVE
INDEX 01 00:00:00
FILE "03 - The One Thing.wav" WAVE
TRACK 03 AUDIO
TITLE "The One Thing"
PERFORMER "Michael Bolton"
INDEX 01 00:00:00
FILE "04 - Soul of My Soul.wav" WAVE
TRACK 04 AUDIO
TITLE "Soul of My Soul"
PERFORMER "Michael Bolton"
INDEX 01 00:00:00
FILE "05 - Completely.wav" WAVE
TRACK 05 AUDIO
TITLE "Completely"
PERFORMER "Michael Bolton"
INDEX 01 00:00:00
FILE "06 - Lean on Me.wav" WAVE
TRACK 06 AUDIO
TITLE "Lean on Me"
PERFORMER "Michael Bolton"
INDEX 01 00:00:00
FILE "07 - Ain't Got Nothing If You Ain't Got Love.wav" WAVE
TRACK 07 AUDIO
TITLE "Ain't Got Nothing If You Ain't Got Love"
PERFORMER "Michael Bolton"
INDEX 01 00:00:00
FILE "08 - A Time for Letting Go.wav" WAVE
TRACK 08 AUDIO
TITLE "A Time for Letting Go"
PERFORMER "Michael Bolton"
INDEX 01 00:00:00
FILE "09 - Never Get Enough of Your Love.wav" WAVE
TRACK 09 AUDIO
TITLE "Never Get Enough of Your Love"
PERFORMER "Michael Bolton"
INDEX 01 00:00:00
FILE "10 - In the Arms of Love.wav" WAVE
TRACK 10 AUDIO
TITLE "In the Arms of Love"
PERFORMER "Michael Bolton"
INDEX 01 00:00:00
TRACK 11 AUDIO
TITLE "The Voice of My Heart"
PERFORMER "Michael Bolton"
INDEX 00 04:47:70
FILE "11 - The Voice of My Heart.wav" WAVE
INDEX 01 00:00:00
[свернуть]

Лог проверки качества

AUDIOCHECKER v2.0 beta (build 457) - by Dester - [Ссылки могут видеть только зарегистрированные и активированные пользователи.]
[Only registered and activated users can see links.]
~~~~~~~~~~~~~~~~~~~~~~~~~~~~~~~~~~
-=== НЕ РЕДАКТИРУЙТЕ ЭТОТ ФАЙЛ! ===-

Путь: ...\1993 - The One Thing [474355 2]

01 -=- 01 - Said I Loved You... But I Lied.flac -=- CDDA (100%)
02 -=- 02 - I'm Not Made of Steel.flac -=- CDDA (100%)
03 -=- 03 - The One Thing.flac -=- CDDA (100%)
04 -=- 04 - Soul of My Soul.flac -=- CDDA (100%)
05 -=- 05 - Completely.flac -=- CDDA (99%)
06 -=- 06 - Lean on Me.flac -=- CDDA (100%)
07 -=- 07 - Ain't Got Nothing If You Ain't Got Love.flac -=- CDDA (100%)
08 -=- 08 - A Time for Letting Go.flac -=- CDDA (100%)
09 -=- 09 - Never Get Enough of Your Love.flac -=- CDDA (100%)
10 -=- 10 - In the Arms of Love.flac -=- CDDA (99%)
11 -=- 11 - The Voice of My Heart.flac -=- CDDA (99%)

Сводка 99,73% CDDA

205170532
[свернуть]

Скачать Michael Bolton - The One Thing

[Ссылки могут видеть только зарегистрированные и активированные пользователи.]
[Only registered and activated users can see links.]

password: sergych
[свернуть]
My opinion of release: 10/10
__________________
TAIFUN.Wings of Soul

Вверх
Пользователь сказал cпасибо:
Chert (19.08.2014)
Похожие темы
Тема Автор Раздел Ответов Последнее сообщение
Релиз Neneh Cherry & The Thing - The Cherry Thing PUPOKIN Jazz и Blues 0 21.06.2012 09:48
Альбом Michael Jackson - Forever, Michael sergych Зарубежная Поп-Музыка 0 28.06.2010 15:39
Релиз Sons Of One - Just One Thing PUPOKIN Alternative Metal 0 08.11.2009 10:21
Релиз Michael Bolton - One World One Love PUPOKIN Зарубежная Поп-Музыка 0 02.10.2009 11:09


Метки
1993 , michael bolton , pop rock , soft rock , soul , the one thing

Опции темы

Ваши права в разделе
Вы не можете создавать новые темы
Вы не можете отвечать в темах
Вы не можете прикреплять вложения
Вы не можете редактировать свои сообщения

Быстрый переход



Текущее время: 03:46. Часовой пояс GMT +3.
Powered by vBulletin® Version 3.8.10
Copyright ©2000 - 2018, vBulletin Solutions, Inc. Перевод: zCarot
© 2008 - 2018 Taifun With Song
Яндекс.Метрика