TAIFUN With Song
Навигация
R&B Ссылки на музыку в этом стиле

А знаете ли Вы, что...
Какое совпадение связало смерти солиста Boney M и Григория Распутина?
«Бобби Фаррелл, единственный мужчина в диско-группе Boney M, во время исполнения одного из главных хитов группы «Rasputin» часто гримировался в образ Распутина. Фаррелл умер от остановки сердца во время гастролей в Санкт-Петербурге 30 декабря 2010 года — того же числа и в том же городе, что и сам Распутин.»
 
Опции темы

  #1
Старый 14.09.2013, 11:06
sergych
Координатор
Досье
 
Аватар для sergych
Релиз Anita Baker - Rhythm Of Love


1994 - Anita Baker - Rhythm Of Love




Исполнитель/Artist: Anita Baker
Альбом/Album: Rhythm Of Love
Год/Year: 1994
Жанр/Genre: r&b, soul
Страна/Country: Германия
Рекорд-лейбл/Record label: Elektra
Номер в каталоге/Catalogue #: 7559-61555-2
Формат/Format: Free Lossless Audio Codec (*.flac)
Качество/Quality: Lossless
Тип рипа/RIP Type: tracks+.cue
Продолжительность/Length: 01:01:28
Источник/Source: Из интернета
Размер/Size: 471.5 MB

Сканы в комплекте

Треклист

01 - Rhythm Of Love
02 - The Look Of Love
03 - Body And Soul
04 - Baby
05 - I Apologize
06 - Plenty Of Room
07 - It's Been You
08 - You Belong To Me
09 - Wrong Man
10 - Only For A While
11 - Sometimes I Wonder Why
12 - My Funny Valentine
[свернуть]

youtube.com

[свернуть]

Исполнители/Performers

Anita Baker: Lead Vocal (all), Vocal Backing (1, 3, 4, 6, 7, 8, 9, 10), Piano Intro & Synthesized Percussion (both on track 1)
Michael Thompson: Rhythm Guitar (track 1)
Dean Parks: Guitars (tracks 2, 3, 10)
Paul Peterson: Additional Guitars on track 2 and rhythm guitar on track 10
Ira Siegel: Guitars (tracks 6, 7), guitar solo on track track 7
Georg Wadenius: Guitars on track 7
Bucky Pizzarelli: Guitars (track 11)
John McCurry: Guitars (track 8)
Andy Snitzer: Saxophone (track 8)
Barry J. Eastmond: Keyboards, Piano, Synthesizers, Synth Strings, Synth Bass, Rhodes Piano, Drum Programming
George Duke: Electric Drums, Percussion, Synth Strings, Synclavier Programming (Woodwinds, Strings, Bass, Percussion), Piano, Synthesized Rhodes
Joe Sample, Greg Phillinganes, Eddie Howard: Piano
Luis Resto: Acoustic & Rhodes Piano, Synth Bass, Synthesizer Pads
Michael Bradford: Intro Piano & Synth Programming on track 1
Nathan East, James Genus, Anthony Jackson, Charnett Moffett: Bass
Joe Mardin: Drums, Percussion, Strings & Woodwinds
Bernard Davies, Steve Ferrone: Drums, Percussion
[свернуть]

EAC лог

Exact Audio Copy V1.0 beta 3 from 29. August 2011

EAC extraction logfile from 22. May 2012, 20:55

Anita Baker / Rhythm Of Love

Used drive : HL-DT-STDVDRAM GH20NS10 Adapter: 2 ID: 1

Read mode : Secure
Utilize accurate stream : Yes
Defeat audio cache : Yes
Make use of C2 pointers : No

Read offset correction : 667
Overread into Lead-In and Lead-Out : No
Fill up missing offset samples with silence : Yes
Delete leading and trailing silent blocks : No
Null samples used in CRC calculations : Yes
Used interface : Native Win32 interface for Win NT & 2000
Gap handling : Appended to previous track

Used output format : User Defined Encoder
Selected bitrate : 1024 kBit/s
Quality : High
Add ID3 tag : No
Command line compressor : C:\Program Files\Exact Audio Copy\Flac\flac.exe
Additional command line options : -8 -V -T "ARTIST=%artist%" -T "TITLE=%title%" -T "ALBUM=%albumtitle%" -T "DATE=%year%" -T "TRACKNUMBER=%tracknr%" -T "TOTALTRACKS=%numtracks%" -T "GENRE=%genre%" -T "ALBUMARTIST=%albumartist%" -T "ALBUM ARTIST=%albumartist%" -T "COMMENT=EAC Secure Mode, Test & Copy, AccurateRip, FLAC -8" %source%


TOC of the extracted CD

Track | Start | Length | Start sector | End sector
---------------------------------------------------------
1 | 0:00.00 | 5:50.48 | 0 | 26297
2 | 5:50.48 | 4:49.02 | 26298 | 47974
3 | 10:39.50 | 5:42.20 | 47975 | 73644
4 | 16:21.70 | 4:26.35 | 73645 | 93629
5 | 20:48.30 | 5:09.15 | 93630 | 116819
6 | 25:57.45 | 4:58.40 | 116820 | 139209
7 | 30:56.10 | 5:00.10 | 139210 | 161719
8 | 35:56.20 | 4:41.70 | 161720 | 182864
9 | 40:38.15 | 5:53.00 | 182865 | 209339
10 | 46:31.15 | 5:19.33 | 209340 | 233297
11 | 51:50.48 | 4:38.02 | 233298 | 254149
12 | 56:28.50 | 5:06.58 | 254150 | 277157


Track 1

Filename D:\Anita Baker - Rhythm Of Love (1994)\01 - Rhythm Of Love.wav

Pre-gap length 0:00:02.00

Peak level 100.0 %
Extraction speed 5.0 X
Track quality 100.0 %
Test CRC 36B556BF
Copy CRC 36B556BF
Accurately ripped (confidence 13) [8EF4488E] (AR v2)
Copy OK

Track 2

Filename D:\Anita Baker - Rhythm Of Love (1994)\02 - The Look Of Love.wav

Peak level 100.0 %
Extraction speed 4.7 X
Track quality 100.0 %
Test CRC 00279BC4
Copy CRC 00279BC4
Accurately ripped (confidence 12) [8EFA0262] (AR v2)
Copy OK

Track 3

Filename D:\Anita Baker - Rhythm Of Love (1994)\03 - Body And Soul.wav

Pre-gap length 0:00:00.15

Peak level 100.0 %
Extraction speed 3.3 X
Track quality 99.9 %
Test CRC 6EEE043E
Copy CRC 6EEE043E
Accurately ripped (confidence 12) [E15E0610] (AR v2)
Copy OK

Track 4

Filename D:\Anita Baker - Rhythm Of Love (1994)\04 - Baby.wav

Pre-gap length 0:00:00.60

Peak level 100.0 %
Extraction speed 5.9 X
Track quality 100.0 %
Test CRC 482DDA99
Copy CRC 482DDA99
Accurately ripped (confidence 13) [2DDEDBE6] (AR v2)
Copy OK

Track 5

Filename D:\Anita Baker - Rhythm Of Love (1994)\05 - I Apologize.wav

Pre-gap length 0:00:00.42

Peak level 100.0 %
Extraction speed 6.7 X
Track quality 100.0 %
Test CRC 13F0CA32
Copy CRC 13F0CA32
Accurately ripped (confidence 12) [EEE80CE0] (AR v2)
Copy OK

Track 6

Filename D:\Anita Baker - Rhythm Of Love (1994)\06 - Plenty Of Room.wav

Pre-gap length 0:00:00.02

Peak level 100.0 %
Extraction speed 6.8 X
Track quality 100.0 %
Test CRC D4539770
Copy CRC D4539770
Accurately ripped (confidence 12) [266A08A7] (AR v2)
Copy OK

Track 7

Filename D:\Anita Baker - Rhythm Of Love (1994)\07 - It's Been You.wav

Pre-gap length 0:00:00.65

Peak level 100.0 %
Extraction speed 6.3 X
Track quality 99.9 %
Test CRC D60625EB
Copy CRC D60625EB
Accurately ripped (confidence 13) [368E0EA8] (AR v2)
Copy OK

Track 8

Filename D:\Anita Baker - Rhythm Of Love (1994)\08 - You Belong To Me.wav

Peak level 100.0 %
Extraction speed 7.7 X
Track quality 100.0 %
Test CRC 72BF1F80
Copy CRC 72BF1F80
Accurately ripped (confidence 13) [E980B66D] (AR v2)
Copy OK

Track 9

Filename D:\Anita Baker - Rhythm Of Love (1994)\09 - Wrong Man.wav

Pre-gap length 0:00:00.37

Peak level 100.0 %
Extraction speed 8.1 X
Track quality 100.0 %
Test CRC 4B07F8FD
Copy CRC 4B07F8FD
Accurately ripped (confidence 13) [DAF3BB5C] (AR v2)
Copy OK

Track 10

Filename D:\Anita Baker - Rhythm Of Love (1994)\10 - Only For A While.wav

Pre-gap length 0:00:01.32

Peak level 100.0 %
Extraction speed 8.3 X
Track quality 100.0 %
Test CRC 29060044
Copy CRC 29060044
Accurately ripped (confidence 11) [E428A700] (AR v2)
Copy OK

Track 11

Filename D:\Anita Baker - Rhythm Of Love (1994)\11 - Sometimes I Wonder Why.wav

Pre-gap length 0:00:02.05

Peak level 100.0 %
Extraction speed 7.5 X
Track quality 100.0 %
Test CRC 975F08A7
Copy CRC 975F08A7
Accurately ripped (confidence 13) [6EA9B843] (AR v2)
Copy OK

Track 12

Filename D:\Anita Baker - Rhythm Of Love (1994)\12 - My Funny Valentine.wav

Pre-gap length 0:00:00.72

Peak level 100.0 %
Extraction speed 6.9 X
Track quality 99.9 %
Test CRC F99ECB3B
Copy CRC F99ECB3B
Accurately ripped (confidence 12) [82109119] (AR v2)
Copy OK


All tracks accurately ripped

No errors occurred

End of status report
[свернуть]

Файл CUE

REM GENRE Soul
REM DATE 1994
REM DISCID A20E6F0C
REM COMMENT "ExactAudioCopy v1.0b3"
PERFORMER "Anita Baker"
TITLE "Rhythm Of Love"
FILE "01 - Rhythm Of Love.flac" WAVE
TRACK 01 AUDIO
TITLE "Rhythm Of Love"
PERFORMER "Anita Baker"
INDEX 01 00:00:00
FILE "02 - The Look Of Love.flac" WAVE
TRACK 02 AUDIO
TITLE "The Look Of Love"
PERFORMER "Anita Baker"
INDEX 01 00:00:00
TRACK 03 AUDIO
TITLE "Body And Soul"
PERFORMER "Anita Baker"
INDEX 00 04:48:62
FILE "03 - Body And Soul.flac" WAVE
INDEX 01 00:00:00
TRACK 04 AUDIO
TITLE "Baby"
PERFORMER "Anita Baker"
INDEX 00 05:41:35
FILE "04 - Baby.flac" WAVE
INDEX 01 00:00:00
TRACK 05 AUDIO
TITLE "I Apologize"
PERFORMER "Anita Baker"
INDEX 00 04:25:68
FILE "05 - I Apologize.flac" WAVE
INDEX 01 00:00:00
TRACK 06 AUDIO
TITLE "Plenty Of Room"
PERFORMER "Anita Baker"
INDEX 00 05:09:13
FILE "06 - Plenty Of Room.flac" WAVE
INDEX 01 00:00:00
TRACK 07 AUDIO
TITLE "It's Been You"
PERFORMER "Anita Baker"
INDEX 00 04:57:50
FILE "07 - It's Been You.flac" WAVE
INDEX 01 00:00:00
FILE "08 - You Belong To Me.flac" WAVE
TRACK 08 AUDIO
TITLE "You Belong To Me"
PERFORMER "Anita Baker"
INDEX 01 00:00:00
TRACK 09 AUDIO
TITLE "Wrong Man"
PERFORMER "Anita Baker"
INDEX 00 04:41:33
FILE "09 - Wrong Man.flac" WAVE
INDEX 01 00:00:00
TRACK 10 AUDIO
TITLE "Only For A While"
PERFORMER "Anita Baker"
INDEX 00 05:51:43
FILE "10 - Only For A While.flac" WAVE
INDEX 01 00:00:00
TRACK 11 AUDIO
TITLE "Sometimes I Wonder Why"
PERFORMER "Anita Baker"
INDEX 00 05:17:28
FILE "11 - Sometimes I Wonder Why.flac" WAVE
INDEX 01 00:00:00
TRACK 12 AUDIO
TITLE "My Funny Valentine"
PERFORMER "Anita Baker"
INDEX 00 04:37:05
FILE "12 - My Funny Valentine.flac" WAVE
INDEX 01 00:00:00
[свернуть]

Лог проверки качества

AUDIOCHECKER v2.0 beta (build 457) - by Dester -
~~~~~~~~~~~~~~~~~~~~~~~~~~~~~~~~~~
-=== НЕ РЕДАКТИРУЙТЕ ЭТОТ ФАЙЛ! ===-

Путь: ...\Anita Baker - 1994 - Rhythm Of Love

01 -=- 01 - Rhythm Of Love.flac -=- CDDA (100%)
02 -=- 02 - The Look Of Love.flac -=- CDDA (100%)
03 -=- 03 - Body And Soul.flac -=- CDDA (100%)
04 -=- 04 - Baby.flac -=- CDDA (100%)
05 -=- 05 - I Apologize.flac -=- CDDA (100%)
06 -=- 06 - Plenty Of Room.flac -=- CDDA (100%)
07 -=- 07 - It's Been You.flac -=- CDDA (100%)
08 -=- 08 - You Belong To Me.flac -=- CDDA (99%)
09 -=- 09 - Wrong Man.flac -=- CDDA (100%)
10 -=- 10 - Only For A While.flac -=- CDDA (100%)
11 -=- 11 - Sometimes I Wonder Why.flac -=- CDDA (100%)
12 -=- 12 - My Funny Valentine.flac -=- CDDA (100%)

Сводка 99,92% CDDA

196855412
[свернуть]

Скачать Anita Baker - Rhythm Of Love



password: sergych
[свернуть]
My opinion of release: 10/10
__________________
TAIFUN.Wings of Soul

Вверх
  #2
Старый 04.12.2013, 17:58
sergych
Координатор
Досье
 
Аватар для sergych
Релиз Re: Anita Baker - Rhythm Of Love


1994 - Anita Baker - Rhythm Of Love




Исполнитель/Artist: Anita Baker
Альбом/Album: Rhythm Of Love
Год/Year: 1994
Жанр/Genre: r&b, soul
Страна/Country: Соединённые Штаты
Рекорд-лейбл/Record label: Elektra
Номер в каталоге/Catalogue #: 61555-2
Формат/Format: Free Lossless Audio Codec (*.flac)
Качество/Quality: Lossless
Тип рипа/RIP Type: image+.cue
Продолжительность/Length: 01:01:35
Источник/Source: Собственный рип
Размер/Size: 504.8 MB

Сканы в комплекте

Треклист

01. Rhythm of Love [0:05:50.23]
02. The Look of Love [0:04:47.65]
03. Body and Soul [0:05:42.17]
04. Baby [0:04:26.35]
05. I Apologize [0:05:10.58]
06. Plenty of Room [0:04:57.67]
07. It's Been You [0:05:00.03]
08. You Belong to Me [0:04:42.12]
09. Wrong Man [0:05:53.33]
10. Only for a While [0:05:19.25]
11. Sometimes I Wonder Why [0:04:38.02]
12. My Funny Valentine [0:05:06.63]
[свернуть]

youtube.com

[свернуть]

Исполнители/Performers

Anita Baker: Lead Vocal (all), Vocal Backing (1, 3, 4, 6, 7, 8, 9, 10), Piano Intro & Synthesized Percussion (both on track 1)
Michael Thompson: Rhythm Guitar (track 1)
Dean Parks: Guitars (tracks 2, 3, 10)
Paul Peterson: Additional Guitars on track 2 and rhythm guitar on track 10
Ira Siegel: Guitars (tracks 6, 7), guitar solo on track track 7
Georg Wadenius: Guitars on track 7
Bucky Pizzarelli: Guitars (track 11)
John McCurry: Guitars (track 8)
Andy Snitzer: Saxophone (track 8)
Barry J. Eastmond: Keyboards, Piano, Synthesizers, Synth Strings, Synth Bass, Rhodes Piano, Drum Programming
George Duke: Electric Drums, Percussion, Synth Strings, Synclavier Programming (Woodwinds, Strings, Bass, Percussion), Piano, Synthesized Rhodes
Joe Sample, Greg Phillinganes, Eddie Howard: Piano
Luis Resto: Acoustic & Rhodes Piano, Synth Bass, Synthesizer Pads
Michael Bradford: Intro Piano & Synth Programming on track 1
Nathan East, James Genus, Anthony Jackson, Charnett Moffett: Bass
Joe Mardin: Drums, Percussion, Strings & Woodwinds
Bernard Davies, Steve Ferrone: Drums, Percussion
[свернуть]

EAC лог

Exact Audio Copy V1.0 beta 3 from 29. August 2011

EAC extraction logfile from 4. December 2013, 20:39

Anita Baker / Rhythm of Love

Used drive : ATAPI iHAS124 D Adapter: 0 ID: 2

Read mode : Secure
Utilize accurate stream : Yes
Defeat audio cache : Yes
Make use of C2 pointers : Yes

Read offset correction : 6
Overread into Lead-In and Lead-Out : No
Fill up missing offset samples with silence : Yes
Delete leading and trailing silent blocks : No
Null samples used in CRC calculations : Yes
Used interface : Installed external ASPI interface

Used output format : User Defined Encoder
Selected bitrate : 1024 kBit/s
Quality : High
Add ID3 tag : No
Command line compressor : C:\Program Files (x86)\Exact Audio Copy\Flac\flac.exe
Additional command line options : -6 -V -T "ARTIST=%artist%" -T "TITLE=%title%" -T "ALBUM=%albumtitle%" -T "DATE=%year%" -T "TRACKNUMBER=%tracknr%" -T "GENRE=%genre%" -T "COMMENT=%comment%" -T "BAND=%albuminterpret%" -T "COMPOSER=%composer%" %haslyrics%--tag-from-file=LYRICS="%lyricsfile%"%haslyrics% -T "DISCNUMBER=%cdnumber%" -T "TOTALDISCS=%totalcds%" -T "TOTALTRACKS=%numtracks%" %hascover%--picture="%coverfile%"%hascover% %source% -o %dest%


TOC of the extracted CD

Track | Start | Length | Start sector | End sector
---------------------------------------------------------
1 | 0:00.32 | 5:50.23 | 32 | 26304
2 | 5:50.55 | 4:47.65 | 26305 | 47894
3 | 10:38.45 | 5:42.17 | 47895 | 73561
4 | 16:20.62 | 4:26.35 | 73562 | 93546
5 | 20:47.22 | 5:10.58 | 93547 | 116854
6 | 25:58.05 | 4:57.67 | 116855 | 139196
7 | 30:55.72 | 5:00.03 | 139197 | 161699
8 | 35:56.00 | 4:42.12 | 161700 | 182861
9 | 40:38.12 | 5:53.33 | 182862 | 209369
10 | 46:31.45 | 5:19.25 | 209370 | 233319
11 | 51:50.70 | 4:38.02 | 233320 | 254171
12 | 56:28.72 | 5:06.63 | 254172 | 277184


Range status and errors

Selected range

Filename C:\mm\Anita Baker\1994 - Rhythm Of Love [61555-2]\Anita Baker - Rhythm of Love.wav

Peak level 100.0 %
Extraction speed 5.4 X
Range quality 100.0 %
Test CRC 5A83EEB2
Copy CRC 5A83EEB2
Copy OK

No errors occurred


AccurateRip summary

Track 1 accurately ripped (confidence 56) [9F42BFEF] (AR v2)
Track 2 accurately ripped (confidence 57) [69A60FD0] (AR v2)
Track 3 accurately ripped (confidence 57) [7E2D632E] (AR v2)
Track 4 accurately ripped (confidence 56) [DB91C626] (AR v2)
Track 5 accurately ripped (confidence 58) [0C693354] (AR v2)
Track 6 accurately ripped (confidence 55) [E6450924] (AR v2)
Track 7 accurately ripped (confidence 57) [C8317A5F] (AR v2)
Track 8 accurately ripped (confidence 56) [0AED6846] (AR v2)
Track 9 accurately ripped (confidence 54) [0486620E] (AR v2)
Track 10 accurately ripped (confidence 55) [9019C053] (AR v2)
Track 11 accurately ripped (confidence 56) [6605BD7C] (AR v2)
Track 12 accurately ripped (confidence 54) [FA07430C] (AR v2)

All tracks accurately ripped

End of status report
[свернуть]

Файл CUE

REM DATE 1994
REM DISCID 9F0E6F0C
REM COMMENT "ExactAudioCopy v1.0b3"
PERFORMER "Anita Baker"
TITLE "Rhythm of Love"
FILE "Anita Baker - Rhythm of Love.flac" WAVE
TRACK 01 AUDIO
TITLE "Rhythm of Love"
PERFORMER "Anita Baker"
INDEX 00 00:00:00
INDEX 01 00:00:32
TRACK 02 AUDIO
TITLE "The Look of Love"
PERFORMER "Anita Baker"
INDEX 00 05:50:53
INDEX 01 05:50:55
TRACK 03 AUDIO
TITLE "Body and Soul"
PERFORMER "Anita Baker"
INDEX 00 10:38:38
INDEX 01 10:38:45
TRACK 04 AUDIO
TITLE "Baby"
PERFORMER "Anita Baker"
INDEX 00 16:20:58
INDEX 01 16:20:62
TRACK 05 AUDIO
TITLE "I Apologize"
PERFORMER "Anita Baker"
INDEX 00 20:46:28
INDEX 01 20:47:22
TRACK 06 AUDIO
TITLE "Plenty of Room"
PERFORMER "Anita Baker"
INDEX 00 25:56:35
INDEX 01 25:58:05
TRACK 07 AUDIO
TITLE "It's Been You"
PERFORMER "Anita Baker"
INDEX 00 30:55:70
INDEX 01 30:55:72
TRACK 08 AUDIO
TITLE "You Belong to Me"
PERFORMER "Anita Baker"
INDEX 00 35:55:53
INDEX 01 35:56:00
TRACK 09 AUDIO
TITLE "Wrong Man"
PERFORMER "Anita Baker"
INDEX 00 40:37:55
INDEX 01 40:38:12
TRACK 10 AUDIO
TITLE "Only for a While"
PERFORMER "Anita Baker"
INDEX 00 46:30:20
INDEX 01 46:31:45
TRACK 11 AUDIO
TITLE "Sometimes I Wonder Why"
PERFORMER "Anita Baker"
INDEX 00 51:48:30
INDEX 01 51:50:70
TRACK 12 AUDIO
TITLE "My Funny Valentine"
PERFORMER "Anita Baker"
INDEX 00 56:28:03
INDEX 01 56:28:72
[свернуть]

Лог проверки качества

AUDIOCHECKER v2.0 beta (build 457) - by Dester -
~~~~~~~~~~~~~~~~~~~~~~~~~~~~~~~~~~
-=== НЕ РЕДАКТИРУЙТЕ ЭТОТ ФАЙЛ! ===-

Путь: ...\1994 - Rhythm Of Love [61555-2]

1 -=- Anita Baker - Rhythm of Love.flac -=- CDDA (100%)

31585492
[свернуть]

Спектр частот

[свернуть]

Скачать Anita Baker - Rhythm Of Love



password: sergych
[свернуть]
My opinion of release: 10/10
__________________
TAIFUN.Wings of Soul

Вверх
Похожие темы
Тема Автор Раздел Ответов Последнее сообщение
Альбом Anita Baker - Compositions sergych R&B 0 14.09.2013 09:54
Альбом Anita Baker - Giving You The Best That I Got sergych R&B 0 14.09.2013 09:28
Альбом Anita Baker - Rapture sergych R&B 0 14.09.2013 09:04
Альбом Anita Baker - The Songstress sergych R&B 0 14.09.2013 08:40
Альбом Anita Lipnicka - Hard Land of Wonder PUPOKIN Jazz и Blues 0 06.07.2010 08:33


Метки
1994 , anita baker , r&b , rhythm of love , soul

Опции темы

Ваши права в разделе
Вы не можете создавать новые темы
Вы не можете отвечать в темах
Вы не можете прикреплять вложения
Вы не можете редактировать свои сообщения

Быстрый переход



Текущее время: 21:08. Часовой пояс GMT +3.
Powered by vBulletin® Version 3.8.10
Copyright ©2000 - 2018, vBulletin Solutions, Inc. Перевод: zCarot
© 2008 - 2018 Taifun With Song
Яндекс.Метрика