TAIFUN With Song
Навигация
Вернуться   TAIFUN With Song > Music (обменник) > POP > Зарубежная Поп-Музыка
Расширенный поиск
А знаете ли Вы, что...
Каким образом в Древнем Китае для определения эталона длины применяли колокол?
«В Древнем Китае эталоном меры длины служил специальный колокол, настроенный на заданную высоту звучания. В другом приспособлении натягивалась струна, чтобы её звук соответствовал данной высоте, и получившаяся длина струны принималась за эталон.»
 
Опции темы

  #1
Старый 10.03.2011, 11:56
sergych
Координатор
Досье
 
Аватар для sergych
По умолчанию Barry White & The Love Unlimited Orchestra - The Love Album

1997(2002) - The Love Album



Исполнитель/Artist: Barry White
Альбом/Album: The Love Album
Год/Year: 1997 (2002)
Издатель/Label: A-Play [Denmark]
Жанр/Genre: Pop /Soul / Disco / R'n'B / Ballad
Формат/Format: mp3 CBR
Качество/Quality: 320 kbps JStereo
Размер/Size: 97.7 mb
Продолжительность/Length: 00:38:18

сканы в комплекте

Треклист

01 - I've Got The Whole World To Hold Me Up
02 - Your Heart And Soul
03 - Under The Influence Of Love
04 - All In The Run Of Love
05 - Out Of The Shadows Of Love
06 - Long Black Veil
07 - Come On In Love
08 - Where Can I Turn To
09 - I Owe It All To You
10 - Fragile - Handle With Care
11 - My Buddy
12 - I've Got The Whole World To Hold Me Up (Big Man Remix)
[свернуть]

Скачать The Love Album




Pass: sergych
[свернуть]


My opinion of release: 4/10

Release info RInfo

Датское переиздание далеко не самого, на мой взгляд, интересного сборника, выходившего в 1997 году под названием "Your Heart And Soul" и с другим оформлением.
__________________
TAIFUN.Wings of Soul


Последний раз редактировалось sergych, 04.02.2014 в 20:56. Причина: перезаливка
Вверх
  #2
Старый 04.02.2014, 21:07
sergych
Координатор
Досье
 
Аватар для sergych
Релиз Re: Barry White & The Love Unlimited Orchestra - The Love Album


1997(2002) - Barry White & The Love Unlimited Orchestra - The Love Album




Исполнитель/Artist: Barry White & The Love Unlimited Orchestra
Альбом/Album: The Love Album
Год/Year: 1997
Ремастеринг/Remaster: 2002
Жанр/Genre: Pop, Soul, Disco, R'n'B, Ballad
Страна/Country: Дания
Рекорд-лейбл/Record label: A-Play
Номер в каталоге/Catalogue #: 10520-2
Формат/Format: Free Lossless Audio Codec (*.flac)
Качество/Quality: Lossless
Тип рипа/RIP Type: image+.cue
Продолжительность/Length: 00:38:18
Источник/Source: Собственный рип
Размер/Size: 213.3 MB

Сканы в комплекте

Треклист

01. Ive Got The Whole World To Hold Me Up [0:03:01.70]
02. Your Heart And Soul [0:03:49.07]
03. Under The Influence Of Love [0:03:05.20]
04. All In The Run Of Love [0:02:46.25]
05. Out Of The Shadows Of Love [0:02:56.25]
06. Long Black Veil [0:03:40.50]
07. Come On In Love [0:03:35.48]
08. Where Can I Turn To [0:02:37.42]
09. I Owe It All To You [0:02:16.43]
10. Fragile - Handle With Care [0:02:53.62]
11. My Buddy [0:02:57.63]
12. Ive Got The Whole World To Hold Me Up (Big Man Remix) [0:04:37.27]
[свернуть]

EAC лог

Exact Audio Copy V1.0 beta 3 from 29. August 2011

EAC extraction logfile from 4. February 2014, 21:45

Barry White / The Love Album

Used drive : ATAPI iHAS124 D Adapter: 0 ID: 2

Read mode : Secure
Utilize accurate stream : Yes
Defeat audio cache : Yes
Make use of C2 pointers : Yes

Read offset correction : 6
Overread into Lead-In and Lead-Out : No
Fill up missing offset samples with silence : Yes
Delete leading and trailing silent blocks : No
Null samples used in CRC calculations : Yes
Used interface : Installed external ASPI interface

Used output format : User Defined Encoder
Selected bitrate : 1024 kBit/s
Quality : High
Add ID3 tag : No
Command line compressor : C:\Program Files (x86)\Exact Audio Copy\Flac\flac.exe
Additional command line options : -6 -V -T "ARTIST=%artist%" -T "TITLE=%title%" -T "ALBUM=%albumtitle%" -T "DATE=%year%" -T "TRACKNUMBER=%tracknr%" -T "GENRE=%genre%" -T "COMMENT=%comment%" -T "BAND=%albuminterpret%" -T "COMPOSER=%composer%" %haslyrics%--tag-from-file=LYRICS="%lyricsfile%"%haslyrics% -T "DISCNUMBER=%cdnumber%" -T "TOTALDISCS=%totalcds%" -T "TOTALTRACKS=%numtracks%" %hascover%--picture="%coverfile%"%hascover% %source% -o %dest%


TOC of the extracted CD

Track | Start | Length | Start sector | End sector
---------------------------------------------------------
1 | 0:00.00 | 3:01.70 | 0 | 13644
2 | 3:01.70 | 3:49.07 | 13645 | 30826
3 | 6:51.02 | 3:05.20 | 30827 | 44721
4 | 9:56.22 | 2:46.25 | 44722 | 57196
5 | 12:42.47 | 2:56.25 | 57197 | 70421
6 | 15:38.72 | 3:40.50 | 70422 | 86971
7 | 19:19.47 | 3:35.48 | 86972 | 103144
8 | 22:55.20 | 2:37.42 | 103145 | 114961
9 | 25:32.62 | 2:16.43 | 114962 | 125204
10 | 27:49.30 | 2:53.62 | 125205 | 138241
11 | 30:43.17 | 2:57.63 | 138242 | 151579
12 | 33:41.05 | 4:37.27 | 151580 | 172381


Range status and errors

Selected range

Filename C:\mm\Barry White\1997(2002) - The Love Album [10520-2]\Barry White - The Love Album.wav

Peak level 98.9 %
Extraction speed 12.7 X
Range quality 100.0 %
Test CRC 8F446ACA
Copy CRC 8F446ACA
Copy OK

No errors occurred


AccurateRip summary

Track 1 cannot be verified as accurate (confidence 2) [1047EB52], AccurateRip returned [4982EF14] (AR v2)
Track 2 cannot be verified as accurate (confidence 2) [4C35A4D7], AccurateRip returned [6075ADA4] (AR v2)
Track 3 cannot be verified as accurate (confidence 2) [4621A8C3], AccurateRip returned [9068F949] (AR v2)
Track 4 cannot be verified as accurate (confidence 2) [51E0411F], AccurateRip returned [13B36D9C] (AR v2)
Track 5 cannot be verified as accurate (confidence 2) [E3CC39D8], AccurateRip returned [D19C8FD6] (AR v2)
Track 6 cannot be verified as accurate (confidence 2) [3DDA7EAE], AccurateRip returned [6C7BE92D] (AR v2)
Track 7 cannot be verified as accurate (confidence 2) [A3EB9492], AccurateRip returned [BA786F6A] (AR v2)
Track 8 cannot be verified as accurate (confidence 2) [28202CC8], AccurateRip returned [47C30526] (AR v2)
Track 9 cannot be verified as accurate (confidence 2) [5A12955D], AccurateRip returned [3AE39A34] (AR v2)
Track 10 cannot be verified as accurate (confidence 2) [BDB95C49], AccurateRip returned [420BB026] (AR v2)
Track 11 cannot be verified as accurate (confidence 2) [0709AB03], AccurateRip returned [62F247C3] (AR v2)
Track 12 cannot be verified as accurate (confidence 2) [88A1B630], AccurateRip returned [C6818F5A] (AR v2)

No tracks could be verified as accurate
You may have a different pressing from the one(s) in the database

End of status report
[свернуть]

Файл CUE

REM GENRE Soul
REM DATE 1997
REM DISCID 9A08FA0C
REM COMMENT "ExactAudioCopy v1.0b3"
PERFORMER "Barry White"
TITLE "The Love Album"
FILE "Barry White - The Love Album.flac" WAVE
TRACK 01 AUDIO
TITLE "Ive Got The Whole World To Hold Me Up"
PERFORMER "Barry White"
INDEX 01 00:00:00
TRACK 02 AUDIO
TITLE "Your Heart And Soul"
PERFORMER "Barry White"
INDEX 00 03:00:42
INDEX 01 03:01:70
TRACK 03 AUDIO
TITLE "Under The Influence Of Love"
PERFORMER "Barry White"
INDEX 00 06:49:50
INDEX 01 06:51:02
TRACK 04 AUDIO
TITLE "All In The Run Of Love"
PERFORMER "Barry White"
INDEX 00 09:54:70
INDEX 01 09:56:22
TRACK 05 AUDIO
TITLE "Out Of The Shadows Of Love"
PERFORMER "Barry White"
INDEX 00 12:41:20
INDEX 01 12:42:47
TRACK 06 AUDIO
TITLE "Long Black Veil"
PERFORMER "Barry White"
INDEX 00 15:37:45
INDEX 01 15:38:72
TRACK 07 AUDIO
TITLE "Come On In Love"
PERFORMER "Barry White"
INDEX 00 19:18:20
INDEX 01 19:19:47
TRACK 08 AUDIO
TITLE "Where Can I Turn To"
PERFORMER "Barry White"
INDEX 00 22:53:67
INDEX 01 22:55:20
TRACK 09 AUDIO
TITLE "I Owe It All To You"
PERFORMER "Barry White"
INDEX 00 25:31:35
INDEX 01 25:32:62
TRACK 10 AUDIO
TITLE "Fragile - Handle With Care"
PERFORMER "Barry White"
INDEX 00 27:48:00
INDEX 01 27:49:30
TRACK 11 AUDIO
TITLE "My Buddy"
PERFORMER "Barry White"
INDEX 00 30:41:65
INDEX 01 30:43:17
TRACK 12 AUDIO
TITLE "Ive Got The Whole World To Hold Me Up (Big Man Remix)"
PERFORMER "Barry White"
INDEX 00 33:39:52
INDEX 01 33:41:05
[свернуть]

Лог проверки качества

AUDIOCHECKER v2.0 beta (build 457) - by Dester -
~~~~~~~~~~~~~~~~~~~~~~~~~~~~~~~~~~
-=== НЕ РЕДАКТИРУЙТЕ ЭТОТ ФАЙЛ! ===-

Путь: ...\1997(2002) - The Love Album [10520-2]

1 -=- Barry White - The Love Album.flac -=- CDDA (100%)

235590900
[свернуть]

Спектр частот

[свернуть]

Скачать Barry White & The Love Unlimited Orchestra - The Love Album



password: sergych
[свернуть]
My opinion of release: 10/10
__________________
TAIFUN.Wings of Soul

Вверх
Похожие темы
Тема Автор Раздел Ответов Последнее сообщение
Сборник Barry White - The Collection sergych Зарубежная Поп-Музыка 0 12.12.2010 08:22
Альбом The Strings Of Paris Orchestra - Endless Love PUPOKIN Instrumental 0 19.11.2010 09:36
Альбом Anthony Ventura and his Orchestra - Music For Making Love PUPOKIN Instrumental 0 19.10.2010 09:27
Альбом Barry White and the Love Unlimited Orchestra - Rhapsody In White PUPOKIN R&B 0 15.04.2010 09:11
Альбом Barry White – Love Songs PUPOKIN Зарубежная Поп-Музыка 0 05.05.2009 10:43


Метки
1997 , 2002 , ballad , barry white , disco , pop , r'n'b , soul

Опции темы

Ваши права в разделе
Вы не можете создавать новые темы
Вы не можете отвечать в темах
Вы не можете прикреплять вложения
Вы не можете редактировать свои сообщения

Быстрый переход



Текущее время: 08:38. Часовой пояс GMT +3.
Powered by vBulletin® Version 3.8.10
Copyright ©2000 - 2018, vBulletin Solutions, Inc. Перевод: zCarot
© 2008 - 2018 Taifun With Song
Яндекс.Метрика