TAIFUN With Song
Навигация
Вернуться   TAIFUN With Song > Music (обменник) > Club & Electronic Music > GOA
Расширенный поиск
GOA Поклонники Goa Trance музыки считают, что она является лучшим (если не единственным) способом достичь измененных состояний сознания без применения химических средств. Является ли только это истиной...

А знаете ли Вы, что...
Чья кровь применялась при печати комиксов?
«Участники группы KISS для раскрутки первого комикса о себе сдали кровь и смешали её с красными чернилами в издающей комикс типографии.»
 
Опции темы

  #1
Старый 22.07.2015, 19:32
TAIFUN
Admin
Досье
 
Аватар для TAIFUN
По умолчанию Re: Space Buddha - Storm Reaction [FLAC]


2003 - Space Buddha - Storm Reaction [WEB]




Исполнитель/Artist: Space Buddha
Альбом/Album: Storm Reaction
Год/Year: 2003
Жанр/Genre: Goa Trance
Страна/Country: Израиль
Рекорд-лейбл/Record label: Agitato Records
Формат/Format: Free Lossless Audio Codec (*.flac)
Качество/Quality: Lossless
Тип рипа/RIP Type: tracks+.cue
Продолжительность/Length: 01:08:12
Источник/Source: what.cd
Размер/Size: 492 MB


Треклист

01. Storm Reaction
02. Under Delusion
03. Silent Galaxy
04. Lost In Infinity
05. Acid Prophecy
06. Dust In The Wind
07. Cosmic Fusion
08. Exceptional Insight
09. Ancient Voices
[свернуть]

youtube.com

[свернуть]

EAC лог

Exact Audio Copy V0.99 prebeta 4 from 23. January 2008

Отчёт EAC об извлечении, выполненном 30. января 2009, 20:06

Space Buddha / Storm Reaction

Дисковод: Optiarc DVD RW AD-7201S Adapter: 1 ID: 0

Режим чтения : Достоверность
Использование точного потока : Да
Отключение кэша аудио : Да
Использование указателей C2 : Нет

Коррекция смещения при чтении : 48
Способность читать области Lead-in и Lead-out : Нет
Заполнение пропущенных сэмплов тишиной : Да
Удаление блоков с тишиной в начале и конце : Нет
При вычислениях CRC использовались нулевые сэмплы : Да
Интерфейс : Установленный внешний ASPI-интерфейс

Выходной формат : Внутренние WAV-операции
Формат сэмплов : 44.100 Гц; 16 бит; стерео


TOC извлечённого CD

Трек | Старт | Длительность | Начальный сектор | Конечный сектор
---------------------------------------------------------------------
1 | 0:00.00 | 7:18.53 | 0 | 32902
2 | 7:18.53 | 7:28.34 | 32903 | 66536
3 | 14:47.12 | 7:44.04 | 66537 | 101340
4 | 22:31.16 | 7:46.06 | 101341 | 136296
5 | 30:17.22 | 7:53.24 | 136297 | 171795
6 | 38:10.46 | 7:16.23 | 171796 | 204518
7 | 45:26.69 | 7:38.03 | 204519 | 238871
8 | 53:04.72 | 7:06.15 | 238872 | 270836
9 | 60:11.12 | 8:00.39 | 270837 | 306875


Характеристики диапазона извлечения и сообщения об ошибках

Выбранный диапазон

Имя файла E:\Music_loss\Space Buddha - Storm reaction 2003\Space Buddha - Storm Reaction.wav

Пиковый уровень 100.0 %
Качество диапазона 99.9 %
CRC копии DDA3AC4D
Копирование... OK

Ошибок не произошло

Конец отчёта
[свернуть]

Файл CUE

REM GENRE Goa / Psychedelic
REM DATE 2003
REM DISCID 830FFB09
REM COMMENT "ExactAudioCopy v0.99pb4"
TITLE "Storm Reaction"
PERFORMER "Space Buddha"
FILE "01. Storm Reaction.flac" WAVE
TRACK 01 AUDIO
TITLE "Storm Reaction"
PERFORMER "Space Buddha"
INDEX 01 00:00:00
FILE "02. Under Delusion.flac" WAVE
TRACK 02 AUDIO
TITLE "Under Delusion"
PERFORMER "Space Buddha"
INDEX 00 00:00:00
INDEX 01 00:02:00
FILE "03. Silent Galaxy.flac" WAVE
TRACK 03 AUDIO
TITLE "Silent Galaxy"
PERFORMER "Space Buddha"
INDEX 00 00:00:00
INDEX 01 00:02:00
FILE "04. Lost In Infinity.flac" WAVE
TRACK 04 AUDIO
TITLE "Lost In Infinity"
PERFORMER "Space Buddha"
INDEX 00 00:00:00
INDEX 01 00:02:00
FILE "05. Acid Prophecy.flac" WAVE
TRACK 05 AUDIO
TITLE "Acid Prophecy"
PERFORMER "Space Buddha"
INDEX 00 00:00:00
INDEX 01 00:02:00
FILE "06. Dust In The Wind.flac" WAVE
TRACK 06 AUDIO
TITLE "Dust In The Wind"
PERFORMER "Space Buddha"
INDEX 00 00:00:00
INDEX 01 00:02:00
FILE "07. Cosmic Fusion.flac" WAVE
TRACK 07 AUDIO
TITLE "Cosmic Fusion"
PERFORMER "Space Buddha"
INDEX 00 00:00:00
INDEX 01 00:02:00
FILE "08. Exceptional Insight.flac" WAVE
TRACK 08 AUDIO
TITLE "Exceptional Insight"
PERFORMER "Space Buddha"
INDEX 00 00:00:00
INDEX 01 00:02:00
FILE "09. Ancient Voices.flac" WAVE
TRACK 09 AUDIO
TITLE "Ancient Voices"
PERFORMER "Space Buddha"
INDEX 00 00:00:00
INDEX 01 00:02:00
[свернуть]

Спектр частот

[свернуть]

Скачать Space Buddha - Storm Reaction

[свернуть]
My opinion of release: 10/10

Release info RInfo

Лучший альбом у Space Buddha, на мой взгляд.
Все композиции очень интересны, ну, может быть 7-ой трек средненький.
Особое внимание композиции под названием Ancient Voices. Лично для меня - это образцовая композиция состоящая из шикарного вступления, шикарной середины, и шикарного завершения. Браво!

Лично для меня, Space Buddha - это образец жанра Goa Trance.
Красивые мелодии, без жёстко-затяжного психодела, мелодичный psy. Гармоничное сплетение.

Для всей выложенной мною дискографии Space Buddha были приведены в порядок теги, имена файлов, .cue (+ созданы при отсутствии таковых (без учёта длительности композиций))
__________________
I love the music
FAQ по форуму
Правила форума
Жизнь человека - это не самое главное в его жизни...


Последний раз редактировалось TAIFUN, 24.07.2015 в 04:33.
Вверх
Пользователь сказал cпасибо:
sergych (23.07.2015)
  #2
Старый 22.07.2015, 19:33
TAIFUN
Admin
Досье
 
Аватар для TAIFUN
По умолчанию Space Buddha - Storm Reaction


2003 - Space Buddha - Storm Reaction




Исполнитель/Artist: Space Buddha
Альбом/Album: Storm Reaction
Год/Year: 2003
Жанр/Genre: Goa Trance
Страна/Country: Израиль
Рекорд-лейбл/Record label: Agitato Records
Номер в каталоге/Catalogue #: AGE1034
Формат/Format: MPEG Layer-3 (*.mp3)
Качество/Quality: CBR 320 kbps
Тип рипа/RIP Type: tracks
Продолжительность/Length: 01:08:12
Источник/Source: Из интернета
Размер/Size: 148 MB

Сканы в комплекте
Тексты песен и обложка включены в теги треков

Треклист

01. Storm Reaction
02. Under Delusion
03. Silent Galaxy
04. Lost In Infinity
05. Acid Prophecy
06. Dust In The Wind
07. Cosmic Fusion
08. Exceptional Insight
09. Ancient Voices
[свернуть]

youtube.com

[свернуть]

Скачать Space Buddha - Storm Reaction

[свернуть]
My opinion of release: 10/10

Release info RInfo

Лучший альбом у Space Buddha, на мой взгляд.
Все композиции очень интересны, ну, может быть 7-ой трек средненький.
Особое внимание композиции под названием Ancient Voices. Лично для меня - это образцовая композиция состоящая из шикарного вступления, шикарной середины, и шикарного завершения. Браво!

Лично для меня, Space Buddha - это образец жанра Goa Trance.
Красивые мелодии, без жёстко-затяжного психодела, мелодичный psy. Гармоничное сплетение.

Для всей выложенной мною дискографии Space Buddha были приведены в порядок теги, имена файлов, .cue (+ созданы при отсутствии таковых (без учёта длительности композиций))


Последний раз редактировалось TAIFUN, 22.07.2015 в 19:33.
Вверх
Пользователь сказал cпасибо:
sergych (31.05.2014)
Похожие темы
Тема Автор Раздел Ответов Последнее сообщение
Альбом Space Buddha - No Shields TAIFUN GOA 0 31.05.2014 04:20
Альбом Space Buddha - Full Circle TAIFUN GOA 0 31.05.2014 01:17
Альбом Space Buddha - Stigmata TAIFUN GOA 0 30.05.2014 14:26
Альбом Space Buddha - Eternity Project TAIFUN GOA 0 30.05.2014 03:51
Альбом Space Buddha - Space Buddha TAIFUN GOA 0 30.05.2014 03:32


Метки
2003 , goa trance , space buddha , storm reaction

Опции темы

Ваши права в разделе
Вы не можете создавать новые темы
Вы не можете отвечать в темах
Вы не можете прикреплять вложения
Вы не можете редактировать свои сообщения

Быстрый переход



Текущее время: 15:19. Часовой пояс GMT +3.
Powered by vBulletin® Version 3.8.10
Copyright ©2000 - 2018, vBulletin Solutions, Inc. Перевод: zCarot
© 2008 - 2018 Taifun With Song
Яндекс.Метрика