TAIFUN With Song - качественная и редкая музыка
Навигация
Jazz и Blues Гибкая ритмика, импровизационное начало, гармонии и мелодии - все это Jazz. Blues - жизнеутверждающая музыка, рожденная из душевной боли

А знаете ли Вы, что...
Почему Майкл Джексон получал половину доходов от продаж песен Beatles?
«В 1984 году на аукционе продавались издательские права на песни Beatles. Его выиграл Майкл Джексон, заплатив почти 50 миллионов долларов — больше, чем предлагал сам Пол Маккартни. С этого времени Джексон получал половину доходов от продаж Beatles (другую половину получали авторы песен, главным образом Маккартни). В 1995 году компания Sony выкупила у Джексона половину его прав, так что в последнее время он получал только четверть доходов.»
 
Опции темы

  #11
Старый 29.05.2016, 19:49
sergych
Координатор
Досье
 
Аватар для sergych
Релиз Re: Chris Rea - The Blue Guitars


2005 - Chris Rea - Album Ten. Latin Blues




Исполнитель/Artist: Chris Rea
Альбом/Album: Album Ten. Latin Blues
Год/Year: 2005
Жанр/Genre: Blues
Страна/Country: Германия
Рекорд-лейбл/Record label: Jazzee Blue
Номер в каталоге/Catalogue #: ST0004 CD10
Формат/Format: Free Lossless Audio Codec (*.flac)
Качество/Quality: Lossless
Тип рипа/RIP Type: image+.cue
Продолжительность/Length: 01:04:51
Источник/Source: Собственный рип
Размер/Size: 424.1 MB

Сканы в комплекте

Треклист

01. Hey Gringo [0:05:49.60]
02. Immigration Blues [0:05:08.47]
03. Still Trying To Clear My Name [0:04:09.20]
04. Sun Is Hot [0:04:13.30]
05. Screw You And Your Deep Blue Sea [0:04:22.37]
06. Nothing Seems To Matter No More [0:03:39.11]
07. Sometimes [0:04:52.72]
08. Lampiou [0:05:40.13]
09. Keep On Dancing [0:03:49.39]
10. Lucifer's Anger [0:04:49.40]
11. How I Know It's You [0:04:00.51]
12. Forever [0:04:36.51]
13. You Got Soul [0:05:08.58]
14. Bajan Blue [0:04:30.17]
[свернуть]

youtube.com

[свернуть]

EAC лог

Exact Audio Copy V1.1 from 23. June 2015

EAC extraction logfile from 11. May 2016, 20:16

Chris Rea / CD10. Latin Blues

Used drive : ATAPI iHAS124 D Adapter: 0 ID: 2

Read mode : Secure
Utilize accurate stream : Yes
Defeat audio cache : Yes
Make use of C2 pointers : No

Read offset correction : 6
Overread into Lead-In and Lead-Out : No
Fill up missing offset samples with silence : Yes
Delete leading and trailing silent blocks : No
Null samples used in CRC calculations : Yes
Used interface : Installed external ASPI interface

Used output format : User Defined Encoder
Selected bitrate : 1024 kBit/s
Quality : High
Add ID3 tag : Yes
Command line compressor : C:\Program Files (x86)\Exact Audio Copy\Flac\flac.exe
Additional command line options : -6 -V -T "ARTIST=%artist%" -T "TITLE=%title%" -T "ALBUM=%albumtitle%" -T "DATE=%year%" -T "TRACKNUMBER=%tracknr%" -T "GENRE=%genre%" -T "COMMENT=%comment%" -T "BAND=%albuminterpret%" -T "COMPOSER=%composer%" %haslyrics%--tag-from-file=LYRICS="%lyricsfile%"%haslyrics% -T "DISCNUMBER=%cdnumber%" -T "TOTALDISCS=%totalcds%" -T "TOTALTRACKS=%numtracks%" %hascover%--picture="%coverfile%"%hascover% %source% -o %dest%


TOC of the extracted CD

Track | Start | Length | Start sector | End sector
---------------------------------------------------------
1 | 0:00.00 | 5:49.60 | 0 | 26234
2 | 5:49.60 | 5:08.47 | 26235 | 49381
3 | 10:58.32 | 4:09.20 | 49382 | 68076
4 | 15:07.52 | 4:13.30 | 68077 | 87081
5 | 19:21.07 | 4:22.37 | 87082 | 106768
6 | 23:43.44 | 3:39.11 | 106769 | 123204
7 | 27:22.55 | 4:52.72 | 123205 | 145176
8 | 32:15.52 | 5:40.13 | 145177 | 170689
9 | 37:55.65 | 3:49.39 | 170690 | 187903
10 | 41:45.29 | 4:49.40 | 187904 | 209618
11 | 46:34.69 | 4:00.51 | 209619 | 227669
12 | 50:35.45 | 4:36.51 | 227670 | 248420
13 | 55:12.21 | 5:08.58 | 248421 | 271578
14 | 60:21.04 | 4:30.17 | 271579 | 291845


Range status and errors

Selected range

Filename C:\mm\Chris Rea\2005 - Blue Guitars [9783937406329]\CD10 - Album Ten. Latin Blues\Chris Rea - CD10. Latin Blues.wav

Peak level 99.9 %
Extraction speed 9.1 X
Range quality 100.0 %
Test CRC 3F46F399
Copy CRC 3F46F399
Copy OK

No errors occurred


AccurateRip summary

Track 1 cannot be verified as accurate (confidence 81) [CAD7118A], AccurateRip returned [933FB2D7] (AR v2)
Track 2 cannot be verified as accurate (confidence 80) [FAE2D975], AccurateRip returned [17F49D03] (AR v2)
Track 3 cannot be verified as accurate (confidence 80) [2957AA29], AccurateRip returned [0043409D] (AR v2)
Track 4 cannot be verified as accurate (confidence 80) [13ABDD65], AccurateRip returned [6D21F6D2] (AR v2)
Track 5 cannot be verified as accurate (confidence 80) [7F251EB7], AccurateRip returned [E1EE4046] (AR v2)
Track 6 cannot be verified as accurate (confidence 80) [8F328E98], AccurateRip returned [45CCE02E] (AR v2)
Track 7 cannot be verified as accurate (confidence 80) [CD50CD0B], AccurateRip returned [F4E4D5D2] (AR v2)
Track 8 cannot be verified as accurate (confidence 80) [534AE048], AccurateRip returned [A92BB8D9] (AR v2)
Track 9 cannot be verified as accurate (confidence 80) [4798BCA7], AccurateRip returned [7D1408C6] (AR v2)
Track 10 cannot be verified as accurate (confidence 79) [3DF18484], AccurateRip returned [26E1605F] (AR v2)
Track 11 cannot be verified as accurate (confidence 80) [C1895375], AccurateRip returned [1F748CCD] (AR v2)
Track 12 cannot be verified as accurate (confidence 78) [0A67AE7F], AccurateRip returned [D220F169] (AR v2)
Track 13 cannot be verified as accurate (confidence 77) [F83AD414], AccurateRip returned [25834419] (AR v2)
Track 14 cannot be verified as accurate (confidence 77) [0394AC3B], AccurateRip returned [A1A03B5D] (AR v2)

No tracks could be verified as accurate
You may have a different pressing from the one(s) in the database

End of status report
[свернуть]

Файл CUE

REM GENRE Blues
REM DATE 2005
REM DISCID C10F330E
REM COMMENT "ExactAudioCopy v1.1"
PERFORMER "Chris Rea"
TITLE "CD10. Latin Blues"
FILE "Chris Rea - CD10. Latin Blues.flac" WAVE
TRACK 01 AUDIO
TITLE "Hey Gringo"
PERFORMER "Chris Rea"
FLAGS DCP
INDEX 01 00:00:00
TRACK 02 AUDIO
TITLE "Immigration Blues"
PERFORMER "Chris Rea"
FLAGS DCP
INDEX 00 05:48:45
INDEX 01 05:49:60
TRACK 03 AUDIO
TITLE "Still Trying To Clear My Name"
PERFORMER "Chris Rea"
FLAGS DCP
INDEX 00 10:56:45
INDEX 01 10:58:32
TRACK 04 AUDIO
TITLE "Sun Is Hot"
PERFORMER "Chris Rea"
FLAGS DCP
INDEX 00 15:07:42
INDEX 01 15:07:52
TRACK 05 AUDIO
TITLE "Screw You And Your Deep Blue Sea"
PERFORMER "Chris Rea"
FLAGS DCP
INDEX 00 19:19:33
INDEX 01 19:21:07
TRACK 06 AUDIO
TITLE "Nothing Seems To Matter No More"
PERFORMER "Chris Rea"
FLAGS DCP
INDEX 00 23:41:11
INDEX 01 23:43:44
TRACK 07 AUDIO
TITLE "Sometimes"
PERFORMER "Chris Rea"
FLAGS DCP
INDEX 00 27:21:15
INDEX 01 27:22:55
TRACK 08 AUDIO
TITLE "Lampiou"
PERFORMER "Chris Rea"
FLAGS DCP
INDEX 00 32:13:12
INDEX 01 32:15:52
TRACK 09 AUDIO
TITLE "Keep On Dancing"
PERFORMER "Chris Rea"
FLAGS DCP
INDEX 00 37:52:48
INDEX 01 37:55:65
TRACK 10 AUDIO
TITLE "Lucifer's Anger"
PERFORMER "Chris Rea"
FLAGS DCP
INDEX 00 41:44:01
INDEX 01 41:45:29
TRACK 11 AUDIO
TITLE "How I Know It's You"
PERFORMER "Chris Rea"
FLAGS DCP
INDEX 00 46:33:32
INDEX 01 46:34:69
TRACK 12 AUDIO
TITLE "Forever"
PERFORMER "Chris Rea"
FLAGS DCP
INDEX 00 50:34:36
INDEX 01 50:35:45
TRACK 13 AUDIO
TITLE "You Got Soul"
PERFORMER "Chris Rea"
FLAGS DCP
INDEX 00 55:10:28
INDEX 01 55:12:21
TRACK 14 AUDIO
TITLE "Bajan Blue"
PERFORMER "Chris Rea"
FLAGS DCP
INDEX 00 60:18:18
INDEX 01 60:21:04
[свернуть]

Лог проверки качества

AUDIOCHECKER v2.0 beta (build 457) - by Dester - [Ссылки могут видеть только зарегистрированные и активированные пользователи.]
[Only registered and activated users can see links.]
~~~~~~~~~~~~~~~~~~~~~~~~~~~~~~~~~~
-=== НЕ РЕДАКТИРУЙТЕ ЭТОТ ФАЙЛ! ===-

Путь: ...\CD10 - Album Ten. Latin Blues

01 -=- Chris Rea - CD10. Latin Blues.flac -=- CDDA (100%)

185354004
[свернуть]

Спектр частот

[свернуть]

Скачать Chris Rea - Album Ten. Latin Blues

[Ссылки могут видеть только зарегистрированные и активированные пользователи.]
[Only registered and activated users can see links.]

password: sergych
[свернуть]
My opinion of release: 10/10
__________________
TAIFUN.Wings of Soul

Вверх
  #12
Старый 29.05.2016, 20:05
sergych
Координатор
Досье
 
Аватар для sergych
Релиз Re: Chris Rea - The Blue Guitars


2005 - Chris Rea - Album Eleven. '60s and '70s




Исполнитель/Artist: Chris Rea
Альбом/Album: Album Eleven. '60s and '70s
Год/Year: 2005
Жанр/Genre: Blues
Страна/Country: Германия
Рекорд-лейбл/Record label: Jazzee Blue
Номер в каталоге/Catalogue #: ST0004 CD11
Формат/Format: Free Lossless Audio Codec (*.flac)
Качество/Quality: Lossless
Тип рипа/RIP Type: image+.cue
Продолжительность/Length: 00:58:40
Источник/Source: Собственный рип
Размер/Size: 390.6 MB

Сканы в комплекте

Треклист

01. My Baby Told Me (Blues) [0:02:42.04]
02. Got To Be Moving [0:03:45.56]
03. My Baby Told Me (Gospel) [0:03:03.39]
04. Heartbreaker [0:02:47.61]
05. Yes I Do (Instrumental) [0:03:16.26]
06. Wasted Love [0:04:30.44]
07. Cool Cool Blue [0:03:56.35]
08. Clarkson Blues [0:04:56.36]
09. Who Killed Love [0:04:04.67]
10. Never Tie Me Down [0:04:04.14]
11. Mindless [0:03:46.19]
12. Ain't That Just The Prettiest Thing [0:05:05.04]
13. Nobody But You [0:03:33.51]
14. Waiting For Love [0:04:38.74]
15. Blue Morning In The Rain [0:04:27.70]
[свернуть]

youtube.com

[свернуть]

EAC лог

Exact Audio Copy V1.1 from 23. June 2015

EAC extraction logfile from 11. May 2016, 23:51

Chris Rea / CD11. 60's & 70's

Used drive : ATAPI iHAS124 D Adapter: 0 ID: 2

Read mode : Secure
Utilize accurate stream : Yes
Defeat audio cache : Yes
Make use of C2 pointers : No

Read offset correction : 6
Overread into Lead-In and Lead-Out : No
Fill up missing offset samples with silence : Yes
Delete leading and trailing silent blocks : No
Null samples used in CRC calculations : Yes
Used interface : Installed external ASPI interface

Used output format : User Defined Encoder
Selected bitrate : 1024 kBit/s
Quality : High
Add ID3 tag : Yes
Command line compressor : C:\Program Files (x86)\Exact Audio Copy\Flac\flac.exe
Additional command line options : -6 -V -T "ARTIST=%artist%" -T "TITLE=%title%" -T "ALBUM=%albumtitle%" -T "DATE=%year%" -T "TRACKNUMBER=%tracknr%" -T "GENRE=%genre%" -T "COMMENT=%comment%" -T "BAND=%albuminterpret%" -T "COMPOSER=%composer%" %haslyrics%--tag-from-file=LYRICS="%lyricsfile%"%haslyrics% -T "DISCNUMBER=%cdnumber%" -T "TOTALDISCS=%totalcds%" -T "TOTALTRACKS=%numtracks%" %hascover%--picture="%coverfile%"%hascover% %source% -o %dest%


TOC of the extracted CD

Track | Start | Length | Start sector | End sector
---------------------------------------------------------
1 | 0:00.00 | 2:42.04 | 0 | 12153
2 | 2:42.04 | 3:45.56 | 12154 | 29084
3 | 6:27.60 | 3:03.39 | 29085 | 42848
4 | 9:31.24 | 2:47.61 | 42849 | 55434
5 | 12:19.10 | 3:16.26 | 55435 | 70160
6 | 15:35.36 | 4:30.44 | 70161 | 90454
7 | 20:06.05 | 3:56.35 | 90455 | 108189
8 | 24:02.40 | 4:56.36 | 108190 | 130425
9 | 28:59.01 | 4:04.67 | 130426 | 148792
10 | 33:03.68 | 4:04.14 | 148793 | 167106
11 | 37:08.07 | 3:46.19 | 167107 | 184075
12 | 40:54.26 | 5:05.04 | 184076 | 206954
13 | 45:59.30 | 3:33.51 | 206955 | 222980
14 | 49:33.06 | 4:38.74 | 222981 | 243904
15 | 54:12.05 | 4:27.70 | 243905 | 263999


Range status and errors

Selected range

Filename C:\mm\Chris Rea\2005 - Blue Guitars [9783937406329]\CD11 - Album Eleven. '60s and '70s\Chris Rea - CD11. 60's & 70's.wav

Peak level 99.8 %
Extraction speed 3.2 X
Range quality 100.0 %
Test CRC 0B4F775F
Copy CRC 0B4F775F
Copy OK

No errors occurred


AccurateRip summary

Track 1 accurately ripped (confidence 6) [EC3790FE] (AR v2)
Track 2 accurately ripped (confidence 6) [BE1DC4B2] (AR v2)
Track 3 accurately ripped (confidence 6) [268B8FC8] (AR v2)
Track 4 accurately ripped (confidence 6) [05B8F300] (AR v2)
Track 5 accurately ripped (confidence 6) [6D9B4DD4] (AR v2)
Track 6 accurately ripped (confidence 6) [A130EFD4] (AR v2)
Track 7 accurately ripped (confidence 6) [20463698] (AR v2)
Track 8 accurately ripped (confidence 6) [CE39EAAB] (AR v2)
Track 9 accurately ripped (confidence 6) [1CF9F03B] (AR v2)
Track 10 accurately ripped (confidence 6) [9E5B1DE3] (AR v2)
Track 11 accurately ripped (confidence 6) [708FA3A2] (AR v2)
Track 12 accurately ripped (confidence 6) [99D46F98] (AR v2)
Track 13 accurately ripped (confidence 6) [6B737F83] (AR v2)
Track 14 accurately ripped (confidence 6) [1549D267] (AR v2)
Track 15 accurately ripped (confidence 6) [B9519402] (AR v2)

All tracks accurately ripped

End of status report
[свернуть]

Файл CUE

REM GENRE Blues
REM DATE 2005
REM DISCID D80DC00F
REM COMMENT "ExactAudioCopy v1.1"
PERFORMER "Chris Rea"
TITLE "CD11. 60's & 70's"
FILE "Chris Rea - CD11. 60's & 70's.flac" WAVE
TRACK 01 AUDIO
TITLE "My Baby Told Me (Blues)"
PERFORMER "Chris Rea"
FLAGS DCP
INDEX 01 00:00:00
TRACK 02 AUDIO
TITLE "Got To Be Moving"
PERFORMER "Chris Rea"
FLAGS DCP
INDEX 01 02:42:04
TRACK 03 AUDIO
TITLE "My Baby Told Me (Gospel)"
PERFORMER "Chris Rea"
FLAGS DCP
INDEX 01 06:27:60
TRACK 04 AUDIO
TITLE "Heartbreaker"
PERFORMER "Chris Rea"
FLAGS DCP
INDEX 01 09:31:24
TRACK 05 AUDIO
TITLE "Yes I Do (Instrumental)"
PERFORMER "Chris Rea"
FLAGS DCP
INDEX 01 12:19:10
TRACK 06 AUDIO
TITLE "Wasted Love"
PERFORMER "Chris Rea"
FLAGS DCP
INDEX 01 15:35:36
TRACK 07 AUDIO
TITLE "Cool Cool Blue"
PERFORMER "Chris Rea"
FLAGS DCP
INDEX 01 20:06:05
TRACK 08 AUDIO
TITLE "Clarkson Blues"
PERFORMER "Chris Rea"
FLAGS DCP
INDEX 01 24:02:40
TRACK 09 AUDIO
TITLE "Who Killed Love"
PERFORMER "Chris Rea"
FLAGS DCP
INDEX 01 28:59:01
TRACK 10 AUDIO
TITLE "Never Tie Me Down"
PERFORMER "Chris Rea"
FLAGS DCP
INDEX 01 33:03:68
TRACK 11 AUDIO
TITLE "Mindless"
PERFORMER "Chris Rea"
FLAGS DCP
INDEX 01 37:08:07
TRACK 12 AUDIO
TITLE "Ain't That Just The Prettiest Thing"
PERFORMER "Chris Rea"
FLAGS DCP
INDEX 01 40:54:26
TRACK 13 AUDIO
TITLE "Nobody But You"
PERFORMER "Chris Rea"
FLAGS DCP
INDEX 01 45:59:30
TRACK 14 AUDIO
TITLE "Waiting For Love"
PERFORMER "Chris Rea"
FLAGS DCP
INDEX 01 49:33:06
TRACK 15 AUDIO
TITLE "Blue Morning In The Rain"
PERFORMER "Chris Rea"
FLAGS DCP
INDEX 01 54:12:05
[свернуть]

Лог проверки качества

AUDIOCHECKER v2.0 beta (build 457) - by Dester - [Ссылки могут видеть только зарегистрированные и активированные пользователи.]
[Only registered and activated users can see links.]
~~~~~~~~~~~~~~~~~~~~~~~~~~~~~~~~~~
-=== НЕ РЕДАКТИРУЙТЕ ЭТОТ ФАЙЛ! ===-

Путь: ...\CD11 - Album Eleven. '60s and '70s

01 -=- Chris Rea - CD11. 60's & 70's.flac -=- CDDA (100%)

2089060
[свернуть]

Спектр частот

[свернуть]

Скачать Chris Rea - Album Eleven. '60s and '70s

[Ссылки могут видеть только зарегистрированные и активированные пользователи.]
[Only registered and activated users can see links.]

password: sergych
[свернуть]
My opinion of release: 10/10
__________________
TAIFUN.Wings of Soul

Вверх
Пользователь сказал cпасибо:
TAIFUN (03.12.2018)
  #13
Старый 29.05.2016, 20:34
sergych
Координатор
Досье
 
Аватар для sergych
Релиз Re: Chris Rea - The Blue Guitars


2005 - Chris Rea - Album Twelve. Dancing Down The Stony Road DVD




Исполнитель/Artist: Chris Rea
Альбом/Album: Album Twelve. Dancing Down The Stony Road DVD
Год/Year: 2005
Жанр/Genre: documentary
Страна/Country: Германия
Рекорд-лейбл/Record label: Jazzee Blue
Номер в каталоге/Catalogue #: ST0004 DVD
Качество/Quality: Lossless
Продолжительность/Length: Нет данных
Источник/Source: Собственный рип
Размер/Size: 16.6 MB

Сканы в комплекте

Треклист

01. 75 Minute Documentary
[свернуть]

Скачать Chris Rea - Album Twelve. Dancing Down The Stony Road DVD

[Ссылки могут видеть только зарегистрированные и активированные пользователи.]
[Only registered and activated users can see links.]

password: sergych

[Ссылки могут видеть только зарегистрированные и активированные пользователи.]
[Only registered and activated users can see links.]
[свернуть]
My opinion of release: 10/10

Release info RInfo

Как и говорилось в топике - в архиве только сканы. Если я надумаю каким-то образом залить 6-ти гигабайтный DVD, то ссылки будут здесь, а тему подниму соответствующим сообщением
__________________
TAIFUN.Wings of Soul

Вверх
Пользователь сказал cпасибо:
TAIFUN (03.12.2018)
  #14
Старый 23.07.2016, 05:13
johnsilver
Меломан
Досье
 
Аватар для johnsilver
По умолчанию Re: Chris Rea - The Blue Guitars

Спасибо за качественные сканы буклета, их действительно ни где не найти было, в отличие от аудио и видео...

Вверх
2 пользователя(ей) сказали cпасибо:
sergych (24.07.2016), TAIFUN (03.12.2018)
  #15
Старый 03.12.2018, 00:39
sergych
Координатор
Досье
 
Аватар для sergych
По умолчанию Re: Chris Rea - The Blue Guitars

[
Цитата: Сообщение от sergych Посмотреть сообщение
Если я надумаю каким-то образом залить 6-ти гигабайтный DVD, то ссылки будут здесь, а тему подниму соответствующим сообщением

Сподобился, наконец-то, залить iso-образ DVD на Мегу. Кста, VLC player его спокойно показывает даже так. Перед просмотром ролика советую зайти во второй пункт меню диска и выбрать соответствующий вашей акустике пункт
__________________
TAIFUN.Wings of Soul

Вверх
Пользователь сказал cпасибо:
TAIFUN (03.12.2018)
Похожие темы
Тема Автор Раздел Ответов Последнее сообщение
Сборник Chris Rea - Blue Guitars: A Collection Of Songs sergych Blues Rock 0 06.11.2013 20:28
Альбом Chris Rea - Blue Street (Five Guitars) sergych Jazz и Blues 0 08.08.2008 05:20


Метки
2005 , blues , blues rock , chris rea , the blue guitars

Опции темы

Ваши права в разделе
Вы не можете создавать новые темы
Вы не можете отвечать в темах
Вы не можете прикреплять вложения
Вы не можете редактировать свои сообщения

Быстрый переход



Текущее время: 23:36. Часовой пояс GMT +3.
Powered by vBulletin® Version 3.8.10
Copyright ©2000 - 2019, vBulletin Solutions, Inc. Перевод: zCarot
© 2008 - 2019 Taifun With Song
Яндекс.Метрика