TAIFUN With Song - качественная и редкая музыка
Навигация
Progressive Rock Единственной универсальной характеристикой прогрессивного рока является усложнение музыкальной формы. Это проявляется в удлиннении и усложнении музыкальных пьес, тяготении к циклическим формам академической музыки; расширении репертуара используемых тембров, усложнении метра и ритма, использовании нетрадиционных для рока мелодических и гармонических решений; поэзии, уходящей от тем развлекательной музыки и тяготеющей к философским «вечным темам», фантастической и фентезийной тематике; переплетении с классической и современной академической музыкой, джазом.

А знаете ли Вы, что...
Какова самая низкая нота, которую может взять человек?
«Американский певец Тим Стормс обладает самым широким в мире вокальным диапазоном. Ещё один зафиксированный рекорд, принадлежащий Стормсу — самая низкая нота, взятая человеком. Эта нота частотой 0,189 Гц — соль на восемь октав ниже, чем самая низкая соль на фортепиано. Данный звук очень далеко отстоит от порога человеческого восприятия (для обычного человека — 16 Гц), а рекорд фиксировался специальными акустическими приборами.»
 
Опции темы

  #1
Старый 14.08.2008, 05:01
sergych
Координатор
Досье
 
Аватар для sergych
Релиз Camel - Mirage


1974(2002) - Camel - Mirage




Исполнитель/Artist: Camel
Альбом/Album: Mirage
Год/Year: 1974
Ремастеринг/Remaster: 2002
Жанр/Genre: Progressive rock
Рекорд-лейбл/Record label: Decca / Universal Music
Номер в каталоге/Catalogue #: 8829292
Формат/Format: Monkey's Audio (*.ape)
Качество/Quality: Lossless
Тип рипа/RIP Type: image+.cue
Продолжительность/Length: 01:08:08
Источник/Source: Из интернета
Размер/Size: 424.9 MB

Сканы в комплекте

Треклист

01 - Freefall
02 - Supertwister
03 - Nimrodel/The Procession/The White Rider
04 - Earthrise
05 - Lady Fantasy: Encounter/Smiles For You/Lady Fantasy

Bonus Tracks on 2002 Remaster
06 - Supertwister (Recorded Live At The Marquee Club (Previously Unreleased))
07 - Mystic Queen (Recorded Live At The Marquee Club (Previously Unreleased))
08 - Arubaluba (Recorded Live At The Marquee Club (Previously Unreleased))
09 - Lady Fantasy: Encounter/Smiles For You/Lady Fantasy (Previously Unreleased)
[свернуть]

Исполнители/Performers

Andrew Latimer – guitars, flute, vocals on "Nimrodel/The Procession/The White Rider" and "Lady Fantasy"
Peter Bardens – organ, piano, Minimoog, Mellotron, vocals on "Freefall", Fender piano, Clavinet
Doug Ferguson – bass
Andy Ward – drums, percussion
[свернуть]

EAC лог

Отчёт EAC об извлечении, выполненном 13. апреля 2008, 17:06 для диска:
Camel / Mirage (2002 Remaster)

Дисковод: TEAC DV-W516E Adapter: 0 ID: 1
Режим чтения: Точный (C2: нет, Точный поток: да, Отключение кэша: да)
Коррекция смещения при чтении: 72
Экстрачтение областей Lead-in и Lead-out : Нет

Выходной формат: Внутренние WAV-операции
44.100 Гц; 16 бит; стерео

Другие параметры:
Заполнение пропущенных сэмплов тишиной : Да
Удаление блоков с тишиной в начале и конце : Нет
'Родной' Win32-интерфейс для Win NT/2000


Статус диапазона и ошибки
Выбранный диапазон
Имя файла C:\Newtor\Mirage\camel_mirage.wav

Пиковый уровень 98.2 %
Качество диапазона 100.0 %
CRC 65BC965A
Копирование... OK

Ошибок не произошло

Конец отчёта
[свернуть]

Файл CUE

PERFORMER "Camel"
TITLE "Mirage (2002 Remaster)"
FILE "camel_mirage.wav" WAVE
TRACK 01 AUDIO
TITLE "Freefall"
PERFORMER "Camel"
INDEX 01 00:00:00
TRACK 02 AUDIO
TITLE "Supertwister"
PERFORMER "Camel"
INDEX 00 05:52:64
INDEX 01 05:53:53
TRACK 03 AUDIO
TITLE "Nimrodel-The Procession-The White Rider"
PERFORMER "Camel"
INDEX 00 09:12:29
INDEX 01 09:13:13
TRACK 04 AUDIO
TITLE "Earthrise"
PERFORMER "Camel"
INDEX 00 18:29:37
INDEX 01 18:30:58
TRACK 05 AUDIO
TITLE "Lady Fantasy: Encounter-Smiles For You-Lady Fantasy"
PERFORMER "Camel"
INDEX 00 25:11:08
INDEX 01 25:12:68
TRACK 06 AUDIO
TITLE "Supertwister [Live at The Marquee Club] [#]"
PERFORMER "Camel"
INDEX 00 37:56:49
INDEX 01 37:58:26
TRACK 07 AUDIO
TITLE "Mystic Queen [Live at The Marquee Club] [#]"
PERFORMER "Camel"
INDEX 00 41:06:74
INDEX 01 41:14:20
TRACK 08 AUDIO
TITLE "Arubaluba [Live at The Marquee Club] [#]"
PERFORMER "Camel"
INDEX 00 47:19:53
INDEX 01 47:21:44
TRACK 09 AUDIO
TITLE "Lady Fantasy: Encounter-Smiles For You-Lady Fantasy [#]"
PERFORMER "Camel"
INDEX 00 55:06:64
INDEX 01 55:09:19
[свернуть]

Лог проверки качества

AUDIOCHECKER v2.0 beta (build 457) - by Dester - [Ссылки могут видеть только зарегистрированные и активированные пользователи.]
[Only registered and activated users can see links.]
~~~~~~~~~~~~~~~~~~~~~~~~~~~~~~~~~~
-=== НЕ РЕДАКТИРУЙТЕ ЭТОТ ФАЙЛ! ===-

Путь: ...\1974(2002) - Mirage

1 -=- camel_mirage.ape -=- CDDA (100%)

169346804
[свернуть]

Скачать Camel - Mirage

[Ссылки могут видеть только зарегистрированные и активированные пользователи.]
[Only registered and activated users can see links.]

password: sergych
[свернуть]
My opinion of release: 8/10
__________________
TAIFUN.Wings of Soul


Последний раз редактировалось sergych, 13.10.2013 в 16:12. Причина: перезаливка
Вверх
Пользователь сказал cпасибо:
TAIFUN (18.02.2011)
Похожие темы
Тема Автор Раздел Ответов Последнее сообщение
Альбом Camel - Camel sergych Progressive Rock 1 23.12.2018 22:42
Биография Camel sergych Rock [FAQ] 0 17.08.2008 11:00
Альбом Camel - I Can See Your House From Here sergych Progressive Rock 0 15.08.2008 21:22


Метки
1974 , camel , mirage , progressive rock

Опции темы

Ваши права в разделе
Вы не можете создавать новые темы
Вы не можете отвечать в темах
Вы не можете прикреплять вложения
Вы не можете редактировать свои сообщения

Быстрый переход



Текущее время: 18:12. Часовой пояс GMT +3.
Powered by vBulletin® Version 3.8.10
Copyright ©2000 - 2019, vBulletin Solutions, Inc. Перевод: zCarot
© 2008 - 2019 Taifun With Song
Яндекс.Метрика