TAIFUN With Song - качественная и редкая музыка
Навигация
Progressive Rock Единственной универсальной характеристикой прогрессивного рока является усложнение музыкальной формы. Это проявляется в удлиннении и усложнении музыкальных пьес, тяготении к циклическим формам академической музыки; расширении репертуара используемых тембров, усложнении метра и ритма, использовании нетрадиционных для рока мелодических и гармонических решений; поэзии, уходящей от тем развлекательной музыки и тяготеющей к философским «вечным темам», фантастической и фентезийной тематике; переплетении с классической и современной академической музыкой, джазом.

А знаете ли Вы, что...
Кто написал сонату, в которой имитируется половой акт?
«Чешский авангардный композитор Эрвин Шульгоф в 1919 году написал Эротическую сонату, которая по сей день исполняется на музыкальных фестивалях. Фактически соната состоит из одной партии для женского голоса, имитирующего стоны и вздохи при половом акте.»
 
Опции темы

  #1
Старый 15.08.2008, 21:22
sergych
Координатор
Досье
 
Аватар для sergych
По умолчанию Camel - I Can See Your House From Here


1979(2009) - Camel - I Can See Your House From Here




Исполнитель/Artist: Camel
Альбом/Album: I Can See Your House From Here
Год/Year: 1979
Ремастеринг/Remaster: 2009
Жанр/Genre: Progressive rock
Страна/Country: Европа
Рекорд-лейбл/Record label: Esoteric Records
Номер в каталоге/Catalogue #: ECLEC2158
Формат/Format: Free Lossless Audio Codec (*.flac)
Качество/Quality: Lossless
Тип рипа/RIP Type: image+.cue
Продолжительность/Length: 00:57:14
Источник/Source: Из интернета
Размер/Size: 413.6 MB

Сканы в комплекте

Треклист

01 - Wait
02 - Your Love Is Stranger Than Mine
03 - Eye Of The Storm
04 - Who We Are
05 - Survival
06 - Hymn To Her
07 - Neon Magic
08 - Remote Romance
09 - Ice

Bonus tracks:
10 - Remote Romance (live version)
11 - Ice (live)
[свернуть]

youtube.com

[свернуть]

Исполнители/Performers

Andrew Latimer – guitars, flute, autoharp on "Who We Are", backing vocals, lead vocals on "Who We Are", "Hymn to Her" and "Neon Magic"
Colin Bass – bass, backing vocals, lead vocals on "Wait" and "Your Love Is Stranger Than Mine"
Kit Watkins – Hammond C3 organ, Solina synthesizer, Yamaha electric grand piano, Rhodes piano, Moog synthesizer, Minimoog, Clavinet, Prophet-5, Yamaha CS80, EMS Sequencer, flute
Jan Schelhaas – Yamaha CS80, Yamaha electric grand piano, grand piano, Prophet-5, Moog synthesizer, Minimoog, EMS Sequencer
Andy Ward – drums, percussion

Additional musicians:
Mel Collins – alto saxophone on "Your Love Is Stranger Than Mine"
Phil Collins – percussion
Rupert Hine – backing vocals
Simon Jeffes – orchestral arrangements on "Who We Are" and "Survival"
[свернуть]

EAC лог

Exact Audio Copy V1.0 beta 3 from 29. August 2011

Отчёт EAC об извлечении, выполненном 7. мая 2013, 20:17

Camel / I Can See Your House From Here

Дисковод: TSSTcorpCDDVDW TS-L633J Adapter: 0 ID: 1

Режим чтения : Достоверность
Использование точного потока : Да
Отключение кэша аудио : Да
Использование указателей C2 : Нет

Коррекция смещения при чтении : 6
Способность читать области Lead-in и Lead-out : Нет
Заполнение пропущенных сэмплов тишиной : Да
Удаление блоков с тишиной в начале и конце : Нет
При вычислениях CRC использовались нулевые сэмплы : Да
Интерфейс : Установленный внешний ASPI-интерфейс

Выходной формат : Пользовательский кодировщик
Выбранный битрейт : 1024 kBit/s
Качество : Высокий
Добавление ID3-тега : Нет
Утилита сжатия : C:\Program Files\Exact Audio Copy\FLAC\FLAC.EXE
Дополнительные параметры : -6 -V -T "ARTIST=%artist%" -T "TITLE=%title%" -T "ALBUM=%albumtitle%" -T "DATE=%year%" -T "TRACKNUMBER=%tracknr%" -T "GENRE=%genre%" -T "COMMENT=%comment%" -T "BAND=%albuminterpret%" -T "ALBUMARTIST=%albuminterpret%" -T "COMPOSER=%composer%" %haslyrics%--tag-from-file=LYRICS="%lyricsfile%"%haslyrics% -T "DISCNUMBER=%cdnumber%" -T "TOTALDISCS=%totalcds%" -T "TOTALTRACKS=%numtracks%" %hascover%--picture="%coverfile%"%hascover% %source% -o %dest%


TOC извлечённого CD

Трек | Старт | Длительность | Начальный сектор | Конечный сектор
---------------------------------------------------------------------
1 | 0:00.00 | 5:02.32 | 0 | 22681
2 | 5:02.32 | 3:23.46 | 22682 | 37952
3 | 8:26.03 | 3:51.42 | 37953 | 55319
4 | 12:17.45 | 7:49.42 | 55320 | 90536
5 | 20:07.12 | 1:13.04 | 90537 | 96015
6 | 21:20.16 | 5:36.15 | 96016 | 121230
7 | 26:56.31 | 4:38.11 | 121231 | 142091
8 | 31:34.42 | 4:03.30 | 142092 | 160346
9 | 35:37.72 | 10:15.20 | 160347 | 206491
10 | 45:53.17 | 4:02.01 | 206492 | 224642
11 | 49:55.18 | 7:19.20 | 224643 | 257587


Характеристики диапазона извлечения и сообщения об ошибках

Выбранный диапазон

Имя файла D:\РИПЫ2\CAMEL 79\Camel - I Can See Your House From Here.wav

Пиковый уровень 98.8 %
Скорость извлечения 2.9 X
Качество диапазона 99.9 %
CRC теста FDCD7B01
CRC копии FDCD7B01
Копирование... OK

Ошибок не произошло


AccurateRip: сводка

Трек 1 отсутствует в базе данных
Трек 2 отсутствует в базе данных
Трек 3 отсутствует в базе данных
Трек 4 отсутствует в базе данных
Трек 5 отсутствует в базе данных
Трек 6 отсутствует в базе данных
Трек 7 отсутствует в базе данных
Трек 8 отсутствует в базе данных
Трек 9 отсутствует в базе данных
Трек 10 отсутствует в базе данных
Трек 11 отсутствует в базе данных

Ни одного трека нет в базе AccurateRip

Конец отчёта
[свернуть]

Файл CUE

REM GENRE "Progressive Rock"
REM DATE 1979
REM DISCID A70D6A0B
REM COMMENT "ExactAudioCopy v1.0b3"
CATALOG 5013929725829
PERFORMER "Camel"
TITLE "I Can See Your House From Here"
FILE "Camel - I Can See Your House From Here.flac" WAVE
TRACK 01 AUDIO
TITLE "Wait"
PERFORMER "Camel"
INDEX 01 00:00:00
TRACK 02 AUDIO
TITLE "Your Love is Stranger Than Mine"
PERFORMER "Camel"
INDEX 00 05:00:60
INDEX 01 05:02:32
TRACK 03 AUDIO
TITLE "Eye of the Storm"
PERFORMER "Camel"
INDEX 00 08:24:24
INDEX 01 08:26:03
TRACK 04 AUDIO
TITLE "Who We Are"
PERFORMER "Camel"
INDEX 00 12:15:72
INDEX 01 12:17:45
TRACK 05 AUDIO
TITLE "Survival"
PERFORMER "Camel"
INDEX 00 20:05:35
INDEX 01 20:07:12
TRACK 06 AUDIO
TITLE "Hymn to Her"
PERFORMER "Camel"
INDEX 00 21:19:22
INDEX 01 21:20:16
TRACK 07 AUDIO
TITLE "Neon Magic"
PERFORMER "Camel"
INDEX 00 26:55:15
INDEX 01 26:56:31
TRACK 08 AUDIO
TITLE "Remote Romance"
PERFORMER "Camel"
INDEX 01 31:34:42
TRACK 09 AUDIO
TITLE "Ice"
PERFORMER "Camel"
INDEX 00 35:36:52
INDEX 01 35:37:72
TRACK 10 AUDIO
TITLE "Remote Romance (live version)"
PERFORMER "Camel"
INDEX 00 45:48:46
INDEX 01 45:53:17
TRACK 11 AUDIO
TITLE "Ice (live)"
PERFORMER "Camel"
INDEX 00 49:52:42
INDEX 01 49:55:18
[свернуть]

Лог проверки качества

AUDIOCHECKER v2.0 beta (build 457) - by Dester - [Ссылки могут видеть только зарегистрированные и активированные пользователи.]
[Only registered and activated users can see links.]
~~~~~~~~~~~~~~~~~~~~~~~~~~~~~~~~~~
-=== НЕ РЕДАКТИРУЙТЕ ЭТОТ ФАЙЛ! ===-

Путь: ...\1979(2009) - I Can See Your House From Here

1 -=- Camel - I Can See Your House From Here.flac -=- CDDA (100%)

58762804
[свернуть]

Скачать Camel - I Can See Your House From Here

[Ссылки могут видеть только зарегистрированные и активированные пользователи.]
[Only registered and activated users can see links.]

password: sergych
[свернуть]
My opinion of release: 9/10
__________________
TAIFUN.Wings of Soul


Последний раз редактировалось sergych, 13.10.2013 в 19:23. Причина: перезаливка, переоформление
Вверх
Похожие темы
Тема Автор Раздел Ответов Последнее сообщение
Альбом Camel - Camel sergych Progressive Rock 1 23.12.2018 22:42
Биография Camel sergych Rock [FAQ] 0 17.08.2008 11:00
Альбом Camel - Rajaz sergych Progressive Rock 0 16.08.2008 11:53
Альбом Camel - A Nod And A Wink sergych Progressive Rock 0 16.08.2008 11:53
Альбом Camel - Mirage sergych Progressive Rock 0 14.08.2008 05:01


Метки
1979 , 2009 , camel , i can see your house from here , progressive rock

Опции темы

Ваши права в разделе
Вы не можете создавать новые темы
Вы не можете отвечать в темах
Вы не можете прикреплять вложения
Вы не можете редактировать свои сообщения

Быстрый переход



Текущее время: 18:13. Часовой пояс GMT +3.
Powered by vBulletin® Version 3.8.10
Copyright ©2000 - 2019, vBulletin Solutions, Inc. Перевод: zCarot
© 2008 - 2019 Taifun With Song
Яндекс.Метрика