TAIFUN With Song - качественная и редкая музыка
Навигация
А знаете ли Вы, что...
Сколько аудиокассет производится в настоящее время в США?
«Фирма-производитель аудиокассет National Audio Company была открыта в 1969 году и осталась одной из немногих в США, кто сохранил оборудование после появления сначала компакт-дисков, а затем mp3. Сейчас она является лидером на этом рынке, производя более 10 миллионов кассет с записями в год. В 2015 году компания продала больше кассет, чем когда-либо в своей истории, поставляя их как для мэйджор-лейблов, так и для инди-групп. Президент компании объясняет этот успех ностальгией по аналоговым вещам, которые можно подержать в руках.»
 
Опции темы

  #1
Старый 04.08.2016, 19:19
sergych
Координатор
Досье
 
Аватар для sergych
Релиз Whitney Houston - Whitney Houston


1985(2010) - Whitney Houston - Whitney Houston {The Deluxe Anniversary Edition}




Исполнитель/Artist: Whitney Houston
Альбом/Album: Whitney Houston {The Deluxe Anniversary Edition}
Год/Year: 1985
Ремастеринг/Remaster: 2010
Жанр/Genre: Pop, R&B, Soul, adult contemporary
Страна/Country: Соединённые Штаты
Рекорд-лейбл/Record label: RCA / Jive
Номер в каталоге/Catalogue #: 88697 58903 2
Формат/Format: Free Lossless Audio Codec (*.flac)
Качество/Quality: Lossless
Тип рипа/RIP Type: image+.cue
Продолжительность/Length: 01:19:49
Источник/Source: Собственный рип
Размер/Size: 749.8 MB + 2.36 GB

Сканы в комплекте

Треклист

Disc One - CD
Disc Two - DVD
[свернуть]

youtube.com

[свернуть]

Исполнители/Performers

Lead vocal – Whitney Houston
Duet vocals – Jermaine Jackson, Teddy Pendergrass
Clarinet – John Barnes
Keyboards – Robbie Buchanan, Randy Kerber, Yvonne Lewis, Richard Marx
Bass guitar – Nathan East, Freddie Washington, Randy "The Emperor" Jackson
Synthesizer – Preston Glass, Greg Phillinganes
Drums – Ed Greene, John "J.R." Robinson, J.T. Lewis, Steve Rucker
Background vocals – Cissy Houston, Jermaine Jackson, Julia Tillman Waters, Maxine Willard Waters, Oren Waters, Yogi Lee, Mary Canty, Deborah Thomas
Guitar – Paul Jackson, Jr., Dann Huff, Tim May, Ira Siegel, David Williams, Louie Shelton

Percussion – Bashiri Johnson, Joe Lala
Rhythm and string arrangements – Gene Page, Jr
Synth guitar – Corrado Rustici
Saxophone – Tom Scott, Ernie Watts, Premik Russell Tubbs
[свернуть]

EAC лог

Exact Audio Copy V1.1 from 23. June 2015

EAC extraction logfile from 29. July 2016, 7:01

Whitney Houston / Whitney Houston {The Deluxe Anniversary Edition}

Used drive : PLEXTOR DVDR PX-716A Adapter: 1 ID: 0

Read mode : Secure
Utilize accurate stream : Yes
Defeat audio cache : Yes
Make use of C2 pointers : No

Read offset correction : 30
Overread into Lead-In and Lead-Out : No
Fill up missing offset samples with silence : Yes
Delete leading and trailing silent blocks : No
Null samples used in CRC calculations : Yes
Used interface : Native Win32 interface for Win NT & 2000

Used output format : User Defined Encoder
Selected bitrate : 1024 kBit/s
Quality : High
Add ID3 tag : No
Command line compressor : C:\Program Files (x86)\Exact Audio Copy\FLAC\FLAC.EXE
Additional command line options : -6 -V -T "ARTIST=%artist%" -T "TITLE=%title%" -T "ALBUM=%albumtitle%" -T "DATE=%year%" -T "TRACKNUMBER=%tracknr%" -T "GENRE=%genre%" -T "COMMENT=%comment%" -T "BAND=%albuminterpret%" -T "ALBUMARTIST=%albuminterpret%" -T "COMPOSER=%composer%" %haslyrics%--tag-from-file=LYRICS="%lyricsfile%"%haslyrics% -T "DISCNUMBER=%cdnumber%" -T "TOTALDISCS=%totalcds%" -T "TOTALTRACKS=%numtracks%" %hascover%--picture="%coverfile%"%hascover% %source% -o %dest%


TOC of the extracted CD

Track | Start | Length | Start sector | End sector
---------------------------------------------------------
1 | 0:00.00 | 4:36.49 | 0 | 20748
2 | 4:36.49 | 5:28.58 | 20749 | 45406
3 | 10:05.32 | 5:01.29 | 45407 | 68010
4 | 15:06.61 | 4:01.11 | 68011 | 86096
5 | 19:07.72 | 3:46.70 | 86097 | 103116
6 | 22:54.67 | 4:37.56 | 103117 | 123947
7 | 27:32.48 | 4:29.12 | 123948 | 144134
8 | 32:01.60 | 4:21.55 | 144135 | 163764
9 | 36:23.40 | 4:58.13 | 163765 | 186127
10 | 41:21.53 | 6:05.11 | 186128 | 213513
11 | 47:26.64 | 7:16.67 | 213514 | 246280
12 | 54:43.56 | 7:25.51 | 246281 | 279706
13 | 62:09.32 | 4:00.41 | 279707 | 297747
14 | 66:09.73 | 6:32.43 | 297748 | 327190
15 | 72:42.41 | 7:06.17 | 327191 | 359157


Range status and errors

Selected range

Filename C:\mm\Whitney Houston\1985(2010) - Whitney Houston {The Deluxe Anniversary Edition} [88697 58903 2]\Whitney Houston - Whitney Houston {The Deluxe Anniversary Edition}.wav

Peak level 99.8 %
Extraction speed 3.7 X
Range quality 99.9 %
Test CRC 88596E4C
Copy CRC 88596E4C
Copy OK

No errors occurred


AccurateRip summary

Track 1 accurately ripped (confidence 45) [D6418702] (AR v2)
Track 2 accurately ripped (confidence 45) [E5D32D69] (AR v2)
Track 3 accurately ripped (confidence 43) [A9B0A550] (AR v2)
Track 4 accurately ripped (confidence 44) [A3C74992] (AR v2)
Track 5 accurately ripped (confidence 45) [152916CC] (AR v2)
Track 6 accurately ripped (confidence 45) [64A62642] (AR v2)
Track 7 accurately ripped (confidence 45) [CAF6F02B] (AR v2)
Track 8 accurately ripped (confidence 45) [458F5140] (AR v2)
Track 9 accurately ripped (confidence 46) [B1AC3B95] (AR v2)
Track 10 accurately ripped (confidence 45) [71D38203] (AR v2)
Track 11 accurately ripped (confidence 42) [805C5867] (AR v2)
Track 12 accurately ripped (confidence 42) [0EC3A0CE] (AR v2)
Track 13 accurately ripped (confidence 43) [98E9578E] (AR v2)
Track 14 accurately ripped (confidence 43) [FFAB37D0] (AR v2)
Track 15 accurately ripped (confidence 40) [64D13E79] (AR v2)

All tracks accurately ripped

End of status report

---- CUETools DB Plugin V2.1.6

[CTDB TOCID: 12COtNndANrcD_iUw8XLsOoNlmU-] found
Submit result: 12COtNndANrcD_iUw8XLsOoNlmU- has been confirmed
Track | CTDB Status
1 | (54/54) Accurately ripped
2 | (54/54) Accurately ripped
3 | (54/54) Accurately ripped
4 | (54/54) Accurately ripped
5 | (54/54) Accurately ripped
6 | (54/54) Accurately ripped
7 | (54/54) Accurately ripped
8 | (54/54) Accurately ripped
9 | (54/54) Accurately ripped
10 | (54/54) Accurately ripped
11 | (53/54) Accurately ripped
12 | (54/54) Accurately ripped
13 | (53/54) Accurately ripped
14 | (51/54) Accurately ripped
15 | (49/54) Accurately ripped
[свернуть]

Файл CUE

REM GENRE R&B
REM DATE 1985
REM DISCID EC12B40F
REM COMMENT "ExactAudioCopy v1.1"
PERFORMER "Whitney Houston"
TITLE "Whitney Houston {The Deluxe Anniversary Edition}"
FILE "Whitney Houston - Whitney Houston {The Deluxe Anniversary Edition}.flac" WAVE
TRACK 01 AUDIO
TITLE "You Give Good Love"
PERFORMER "Whitney Houston"
INDEX 01 00:00:00
TRACK 02 AUDIO
TITLE "Thinking About You"
PERFORMER "Whitney Houston"
INDEX 00 04:35:29
INDEX 01 04:36:49
TRACK 03 AUDIO
TITLE "Someone for Me"
PERFORMER "Whitney Houston"
INDEX 00 10:00:14
INDEX 01 10:05:32
TRACK 04 AUDIO
TITLE "Saving All My Love for You"
PERFORMER "Whitney Houston"
INDEX 00 15:02:62
INDEX 01 15:06:61
TRACK 05 AUDIO
TITLE "Nobody Loves Me Like You Do"
PERFORMER "Whitney Houston"
INDEX 00 19:04:08
INDEX 01 19:07:72
TRACK 06 AUDIO
TITLE "How Will I Know"
PERFORMER "Whitney Houston"
INDEX 01 22:54:67
TRACK 07 AUDIO
TITLE "All at Once"
PERFORMER "Whitney Houston"
INDEX 00 27:28:64
INDEX 01 27:32:48
TRACK 08 AUDIO
TITLE "Take Good Care of My Heart"
PERFORMER "Whitney Houston"
INDEX 00 31:59:36
INDEX 01 32:01:60
TRACK 09 AUDIO
TITLE "Greatest Love of All"
PERFORMER "Whitney Houston"
INDEX 00 36:15:25
INDEX 01 36:23:40
TRACK 10 AUDIO
TITLE "Hold Me"
PERFORMER "Whitney Houston"
INDEX 00 41:20:10
INDEX 01 41:21:53
TRACK 11 AUDIO
TITLE "Thinking About You [12'' Dance Remix]"
PERFORMER "Whitney Houston"
INDEX 00 47:23:17
INDEX 01 47:26:64
TRACK 12 AUDIO
TITLE "Someone for Me [12'' dance remix]"
PERFORMER "Whitney Houston"
INDEX 00 54:42:26
INDEX 01 54:43:56
TRACK 13 AUDIO
TITLE "How Will I Know [Acappella]"
PERFORMER "Whitney Houston"
INDEX 00 62:07:45
INDEX 01 62:09:32
TRACK 14 AUDIO
TITLE "How Will I Know [12'' Dance Remix]"
PERFORMER "Whitney Houston"
INDEX 00 66:08:63
INDEX 01 66:09:73
TRACK 15 AUDIO
TITLE "Greatest Love of All [Live]"
PERFORMER "Whitney Houston"
INDEX 00 72:41:36
INDEX 01 72:42:41
[свернуть]

Лог проверки качества

AUDIOCHECKER v2.0 beta (build 457) - by Dester - [Ссылки могут видеть только зарегистрированные и активированные пользователи.]
[Only registered and activated users can see links.]
~~~~~~~~~~~~~~~~~~~~~~~~~~~~~~~~~~
-=== НЕ РЕДАКТИРУЙТЕ ЭТОТ ФАЙЛ! ===-

Путь: ...\1985(2010) - Whitney Houston {The Deluxe Anniversary Edition} [88697 58903 2]

1 -=- Whitney Houston - Whitney Houston {The Deluxe Anniversary Edition}.flac -=- CDDA (100%)

150038100
[свернуть]

Спектр частот

[свернуть]

Скачать Whitney Houston - Whitney Houston

[Ссылки могут видеть только зарегистрированные и активированные пользователи.]
[Only registered and activated users can see links.]

password: sergych

[Ссылки могут видеть только зарегистрированные и активированные пользователи.]
[Only registered and activated users can see links.]

код: !AIYlCpd1gAml9rhM5KlVG74eskQ4ja1MMgdc7E0xIyk
контрольная сумма md5 - 4ec5de3d77b321daac53893b237538a3 *WH{TDAE}.iso
[свернуть]
My opinion of release: 10/10

Release info RInfo

DVD в виде iso-образа Вы можете подключить с помощью программ-эмуляторов виртуальных приводов (вроде Nero и т.д.)
__________________
TAIFUN.Wings of Soul


Последний раз редактировалось sergych, 30.12.2018 в 09:06. Причина: замена ссылки из-за личеров
Вверх
3 пользователя(ей) сказали cпасибо:
Guilli (30.12.2018), johnsilver (05.08.2016), swint68 (05.08.2016)
  #2
Старый 05.08.2016, 15:56
johnsilver
Меломан
Досье
 
Аватар для johnsilver
По умолчанию Re: Whitney Houston - Whitney Houston

Спасибо за релиз! Однако DVD невозможно воспроизвести, ни из образа, ни в распакованном виде, на VLC media player, а ArcSoft TotalMedia Theatre 6 вообще наглухо подвешивается. Два раза скачивал образ... Или может у меня с системой какие глюки... Проверьте, пожалуйста, образ DVD?

Вверх
Пользователь сказал cпасибо:
sergych (05.08.2016)
  #3
Старый 05.08.2016, 20:34
sergych
Координатор
Досье
 
Аватар для sergych
По умолчанию Re: Whitney Houston - Whitney Houston

Цитата: Сообщение от johnsilver Посмотреть сообщение
Проверьте, пожалуйста, образ DVD

Действительно, - исошник получился битый. Спасибо за внимательность.
Переделал (на другом приводе), перезалил, ссылку обновил и добавил ниже контрольную сумму md5 для проверки целостности образа
__________________
TAIFUN.Wings of Soul

Вверх
Пользователь сказал cпасибо:
johnsilver (05.08.2016)
Похожие темы
Тема Автор Раздел Ответов Последнее сообщение
Сборник Whitney Houston - Live. Her Greatest Performances sergych Зарубежная Поп-Музыка 0 10.11.2015 21:40
Альбом Whitney Houston - I'm Your Baby Tonight sergych Зарубежная Поп-Музыка 0 31.05.2015 13:27
Сборник Whitney Houston - I Will Always Love You: The Best of Whitney Houston sergych Зарубежная Поп-Музыка 0 22.12.2014 20:12
Альбом Whitney Houston - Whitney sergych Зарубежная Поп-Музыка 0 22.12.2014 19:40


Метки
1985 , adult contemporary , pop , r&b , soul , whitney houston , whitney houston {the deluxe anniversary edition}

Опции темы

Ваши права в разделе
Вы не можете создавать новые темы
Вы не можете отвечать в темах
Вы не можете прикреплять вложения
Вы не можете редактировать свои сообщения

Быстрый переход



Текущее время: 18:11. Часовой пояс GMT +3.
Powered by vBulletin® Version 3.8.10
Copyright ©2000 - 2019, vBulletin Solutions, Inc. Перевод: zCarot
© 2008 - 2019 Taifun With Song
Яндекс.Метрика