TAIFUN With Song - качественная и редкая музыка
Навигация
Jazz и Blues Гибкая ритмика, импровизационное начало, гармонии и мелодии - все это Jazz. Blues - жизнеутверждающая музыка, рожденная из душевной боли

А знаете ли Вы, что...
В каком стиле играет группа, вокалистом которой является попугай?
«Единственная в мире группа, вокалистом которой является птица — попугай по кличке Вальдо, играет в стиле дэт-метал и называется Hatebeak. К настоящему времени группа выпустила три альбома, однако проект существует только в студии и концертов не даёт. Второй альбом Hatebeak записали с дэтграйнд-коллективом Caninus, в котором солировали два питбультерьера.»
 
Опции темы

  #1
Старый 22.04.2015, 21:15
sergych
Координатор
Досье
 
Аватар для sergych
Thumbs up Oscar Peterson - Plays The Best Of The Great American Songbooks


2010 - Oscar Peterson - Plays The Best Of The Great American Songbooks




Исполнитель/Artist: Oscar Peterson
Альбом/Album: Plays The Best Of The Great American Songbooks
Год/Year: 2010
Жанр/Genre: Jazz, Swing, Bebop
Страна/Country: Европа
Рекорд-лейбл/Record label: Xtra
Номер в каталоге/Catalogue #: 26642
Формат/Format: Free Lossless Audio Codec (*.flac)
Качество/Quality: Lossless
Тип рипа/RIP Type: image+.cue
Продолжительность/Length: 01:17:41
Источник/Source: Собственный рип
Размер/Size: 232.2 MB

Сканы в комплекте

Треклист

01. That Old Black Magic [0:03:40.14]
02. Night And Day [0:03:39.67]
03. Fascinatin' Rhythm [0:02:55.44]
04. The Way You Look Tonight [0:02:58.46]
05. Cheek To Cheek [0:03:00.62]
06. The Lady Is A Tramp [0:02:53.06]
07. It Ain't Necessarily So [0:03:12.43]
08. Smoke Gets In Your Eyes [0:02:46.50]
09. I Get A Kick Out Of You [0:02:59.39]
10. Let's Fall In Love [0:03:32.46]
11. Bewitched, Bothered And Bewildered [0:02:31.09]
12. I've Got My Love To Keep Me Warm [0:02:50.49]
13. 'S Wonderful [0:02:36.35]
14. Just One Of Those Things [0:02:22.35]
15. Ac-cent-tchu-ate The Positive [0:03:15.04]
16. Blue Moon [0:02:51.00]
17. Alexander's Ragtime Band [0:02:51.69]
18. A Fine Romance [0:03:06.30]
19. The Man I Love [0:03:05.64]
20. Love For Sale [0:03:10.72]
21. Long Ago (And Far Away) [0:03:45.29]
22. Isn't This A Lovely Day [0:03:19.11]
23. What Is This Thing Called Love? [0:03:07.65]
24. Stormy Weather [0:03:34.12]
25. Over The Rainbow [0:03:32.64]
[свернуть]

youtube.com

[свернуть]

EAC лог

Exact Audio Copy V1.0 beta 3 from 29. August 2011

EAC extraction logfile from 20. April 2015, 21:51

Oscar Peterson / Plays The Best Of The Great American Songbooks

Used drive : ATAPI iHAS124 D Adapter: 0 ID: 2

Read mode : Secure
Utilize accurate stream : Yes
Defeat audio cache : Yes
Make use of C2 pointers : No

Read offset correction : 6
Overread into Lead-In and Lead-Out : No
Fill up missing offset samples with silence : Yes
Delete leading and trailing silent blocks : No
Null samples used in CRC calculations : Yes
Used interface : Installed external ASPI interface

Used output format : User Defined Encoder
Selected bitrate : 1024 kBit/s
Quality : High
Add ID3 tag : No
Command line compressor : C:\Program Files (x86)\Exact Audio Copy\Flac\flac.exe
Additional command line options : -6 -V -T "ARTIST=%artist%" -T "TITLE=%title%" -T "ALBUM=%albumtitle%" -T "DATE=%year%" -T "TRACKNUMBER=%tracknr%" -T "GENRE=%genre%" -T "COMMENT=%comment%" -T "BAND=%albuminterpret%" -T "COMPOSER=%composer%" %haslyrics%--tag-from-file=LYRICS="%lyricsfile%"%haslyrics% -T "DISCNUMBER=%cdnumber%" -T "TOTALDISCS=%totalcds%" -T "TOTALTRACKS=%numtracks%" %hascover%--picture="%coverfile%"%hascover% %source% -o %dest%


TOC of the extracted CD

Track | Start | Length | Start sector | End sector
---------------------------------------------------------
1 | 0:00.00 | 3:40.14 | 0 | 16513
2 | 3:40.14 | 3:39.67 | 16514 | 33005
3 | 7:20.06 | 2:55.44 | 33006 | 46174
4 | 10:15.50 | 2:58.46 | 46175 | 59570
5 | 13:14.21 | 3:00.62 | 59571 | 73132
6 | 16:15.08 | 2:53.06 | 73133 | 86113
7 | 19:08.14 | 3:12.43 | 86114 | 100556
8 | 22:20.57 | 2:46.50 | 100557 | 113056
9 | 25:07.32 | 2:59.39 | 113057 | 126520
10 | 28:06.71 | 3:32.46 | 126521 | 142466
11 | 31:39.42 | 2:31.09 | 142467 | 153800
12 | 34:10.51 | 2:50.49 | 153801 | 166599
13 | 37:01.25 | 2:36.35 | 166600 | 178334
14 | 39:37.60 | 2:22.35 | 178335 | 189019
15 | 42:00.20 | 3:15.04 | 189020 | 203648
16 | 45:15.24 | 2:51.00 | 203649 | 216473
17 | 48:06.24 | 2:51.69 | 216474 | 229367
18 | 50:58.18 | 3:06.30 | 229368 | 243347
19 | 54:04.48 | 3:05.64 | 243348 | 257286
20 | 57:10.37 | 3:10.72 | 257287 | 271608
21 | 60:21.34 | 3:45.29 | 271609 | 288512
22 | 64:06.63 | 3:19.11 | 288513 | 303448
23 | 67:25.74 | 3:07.65 | 303449 | 317538
24 | 70:33.64 | 3:34.12 | 317539 | 333600
25 | 74:08.01 | 3:32.64 | 333601 | 349564


Range status and errors

Selected range

Filename C:\mm\Oscar Peterson\2010 - Plays The Best Of The Great American Songbooks [26642]\Oscar Peterson - Plays The Best Of The Great American Songbooks.wav

Peak level 94.4 %
Extraction speed 10.4 X
Range quality 100.0 %
Test CRC E15C1F84
Copy CRC E15C1F84
Copy OK

No errors occurred


AccurateRip summary

Track 1 cannot be verified as accurate (confidence 2) [C8773BF0], AccurateRip returned [AC722D0C] (AR v2)
Track 2 cannot be verified as accurate (confidence 2) [81F58CC0], AccurateRip returned [8BA38D7C] (AR v2)
Track 3 cannot be verified as accurate (confidence 2) [963E1F53], AccurateRip returned [502D24C0] (AR v2)
Track 4 cannot be verified as accurate (confidence 2) [9C451730], AccurateRip returned [DB0BFE00] (AR v2)
Track 5 cannot be verified as accurate (confidence 2) [A25BEE99], AccurateRip returned [E67E7180] (AR v2)
Track 6 cannot be verified as accurate (confidence 2) [5BF4C3C7], AccurateRip returned [65DEBADF] (AR v2)
Track 7 cannot be verified as accurate (confidence 2) [204487AA], AccurateRip returned [B482BF10] (AR v2)
Track 8 cannot be verified as accurate (confidence 2) [54F8DC33], AccurateRip returned [81BD1DB9] (AR v2)
Track 9 cannot be verified as accurate (confidence 2) [3EE14BC2], AccurateRip returned [C3747E07] (AR v2)
Track 10 cannot be verified as accurate (confidence 2) [83DB1514], AccurateRip returned [5DAFB69B] (AR v2)
Track 11 cannot be verified as accurate (confidence 2) [408DC775], AccurateRip returned [5F3BF4B0] (AR v2)
Track 12 cannot be verified as accurate (confidence 2) [910340CF], AccurateRip returned [BD527E81] (AR v2)
Track 13 cannot be verified as accurate (confidence 2) [B0861C2E], AccurateRip returned [815186EB] (AR v2)
Track 14 cannot be verified as accurate (confidence 2) [29CE9B22], AccurateRip returned [E4D7B1FA] (AR v2)
Track 15 cannot be verified as accurate (confidence 2) [288FD926], AccurateRip returned [71CE6EB7] (AR v2)
Track 16 cannot be verified as accurate (confidence 2) [88DE95BF], AccurateRip returned [179B3F5F] (AR v2)
Track 17 cannot be verified as accurate (confidence 2) [24704DD7], AccurateRip returned [CE846DE7] (AR v2)
Track 18 cannot be verified as accurate (confidence 2) [8F6EED5C], AccurateRip returned [08025067] (AR v2)
Track 19 cannot be verified as accurate (confidence 2) [5C32173D], AccurateRip returned [225C8743] (AR v2)
Track 20 cannot be verified as accurate (confidence 2) [1F43C44B], AccurateRip returned [0C0B9590] (AR v2)
Track 21 cannot be verified as accurate (confidence 2) [035847F7], AccurateRip returned [89ECF933] (AR v2)
Track 22 cannot be verified as accurate (confidence 2) [4AF18B0F], AccurateRip returned [D1E006AD] (AR v2)
Track 23 cannot be verified as accurate (confidence 2) [1C5D0D39], AccurateRip returned [2B12476E] (AR v2)
Track 24 cannot be verified as accurate (confidence 2) [38D67DA5], AccurateRip returned [6B85A1F7] (AR v2)
Track 25 cannot be verified as accurate (confidence 2) [0686771A], AccurateRip returned [13F4ECC0] (AR v2)

No tracks could be verified as accurate
You may have a different pressing from the one(s) in the database

End of status report
[свернуть]

Файл CUE

REM GENRE Jazz
REM DATE 2004
REM DISCID 60123419
REM COMMENT "ExactAudioCopy v1.0b3"
PERFORMER "Oscar Peterson"
TITLE "Plays The Best Of The Great American Songbooks"
FILE "Oscar Peterson - Plays The Best Of The Great American Songbooks.flac" WAVE
TRACK 01 AUDIO
TITLE "That Old Black Magic"
PERFORMER "Oscar Peterson"
INDEX 01 00:00:00
TRACK 02 AUDIO
TITLE "Night And Day"
PERFORMER "Oscar Peterson"
INDEX 00 03:39:51
INDEX 01 03:40:14
TRACK 03 AUDIO
TITLE "Fascinatin' Rhythm"
PERFORMER "Oscar Peterson"
INDEX 00 07:20:01
INDEX 01 07:20:06
TRACK 04 AUDIO
TITLE "The Way You Look Tonight"
PERFORMER "Oscar Peterson"
INDEX 00 10:15:27
INDEX 01 10:15:50
TRACK 05 AUDIO
TITLE "Cheek To Cheek"
PERFORMER "Oscar Peterson"
INDEX 00 13:14:07
INDEX 01 13:14:21
TRACK 06 AUDIO
TITLE "The Lady Is A Tramp"
PERFORMER "Oscar Peterson"
INDEX 00 16:14:66
INDEX 01 16:15:08
TRACK 07 AUDIO
TITLE "It Ain't Necessarily So"
PERFORMER "Oscar Peterson"
INDEX 00 19:07:18
INDEX 01 19:08:14
TRACK 08 AUDIO
TITLE "Smoke Gets In Your Eyes"
PERFORMER "Oscar Peterson"
INDEX 00 22:20:44
INDEX 01 22:20:57
TRACK 09 AUDIO
TITLE "I Get A Kick Out Of You"
PERFORMER "Oscar Peterson"
INDEX 00 25:07:02
INDEX 01 25:07:32
TRACK 10 AUDIO
TITLE "Let's Fall In Love"
PERFORMER "Oscar Peterson"
INDEX 00 28:06:57
INDEX 01 28:06:71
TRACK 11 AUDIO
TITLE "Bewitched, Bothered And Bewildered"
PERFORMER "Oscar Peterson"
INDEX 00 31:39:26
INDEX 01 31:39:42
TRACK 12 AUDIO
TITLE "I've Got My Love To Keep Me Warm"
PERFORMER "Oscar Peterson"
INDEX 00 34:10:21
INDEX 01 34:10:51
TRACK 13 AUDIO
TITLE "'S Wonderful"
PERFORMER "Oscar Peterson"
INDEX 00 37:01:06
INDEX 01 37:01:25
TRACK 14 AUDIO
TITLE "Just One Of Those Things"
PERFORMER "Oscar Peterson"
INDEX 00 39:37:30
INDEX 01 39:37:60
TRACK 15 AUDIO
TITLE "Ac-cent-tchu-ate The Positive"
PERFORMER "Oscar Peterson"
INDEX 00 41:59:43
INDEX 01 42:00:20
TRACK 16 AUDIO
TITLE "Blue Moon"
PERFORMER "Oscar Peterson"
INDEX 00 45:14:69
INDEX 01 45:15:24
TRACK 17 AUDIO
TITLE "Alexander's Ragtime Band"
PERFORMER "Oscar Peterson"
INDEX 00 48:05:69
INDEX 01 48:06:24
TRACK 18 AUDIO
TITLE "A Fine Romance"
PERFORMER "Oscar Peterson"
INDEX 00 50:57:63
INDEX 01 50:58:18
TRACK 19 AUDIO
TITLE "The Man I Love"
PERFORMER "Oscar Peterson"
INDEX 00 54:04:36
INDEX 01 54:04:48
TRACK 20 AUDIO
TITLE "Love For Sale"
PERFORMER "Oscar Peterson"
INDEX 00 57:10:07
INDEX 01 57:10:37
TRACK 21 AUDIO
TITLE "Long Ago (And Far Away)"
PERFORMER "Oscar Peterson"
INDEX 00 60:21:04
INDEX 01 60:21:34
TRACK 22 AUDIO
TITLE "Isn't This A Lovely Day"
PERFORMER "Oscar Peterson"
INDEX 00 64:06:33
INDEX 01 64:06:63
TRACK 23 AUDIO
TITLE "What Is This Thing Called Love?"
PERFORMER "Oscar Peterson"
INDEX 00 67:25:44
INDEX 01 67:25:74
TRACK 24 AUDIO
TITLE "Stormy Weather"
PERFORMER "Oscar Peterson"
INDEX 00 70:33:56
INDEX 01 70:33:64
TRACK 25 AUDIO
TITLE "Over The Rainbow"
PERFORMER "Oscar Peterson"
INDEX 00 74:07:46
INDEX 01 74:08:01
[свернуть]

Лог проверки качества

AUDIOCHECKER v2.0 beta (build 457) - by Dester - [Ссылки могут видеть только зарегистрированные и активированные пользователи.]
[Only registered and activated users can see links.]
~~~~~~~~~~~~~~~~~~~~~~~~~~~~~~~~~~
-=== НЕ РЕДАКТИРУЙТЕ ЭТОТ ФАЙЛ! ===-

Путь: ...\2010 - Plays The Best Of The Great American Songbooks [26642]

1 -=- Oscar Peterson - Plays The Best Of The Great American Songbooks.flac -=- MPEG (100%)

203905204
[свернуть]

Спектр частот

[свернуть]

Скачать Oscar Peterson - Plays The Best Of The Great American Songbooks

[Ссылки могут видеть только зарегистрированные и активированные пользователи.]
[Only registered and activated users can see links.]

password: sergych
[свернуть]
My opinion of release: 10/10

Release info RInfo

К моему сожалению спектр диапазона не оставляет сомнений в том, что перед нами мп3-шные пережатки. Увы, но и господа капиталисты, случается, грешат подобными вывертами
__________________
TAIFUN.Wings of Soul

Вверх
Похожие темы
Тема Автор Раздел Ответов Последнее сообщение
Сборник Oscar Peterson - Songbooks (3xCD) sergych Jazz и Blues 1 11.12.2018 14:14
Альбом Oscar Peterson - The Gershwin SongBooks sergych Jazz и Blues 1 16.07.2018 18:53
Сборник Oscar Peterson - Songbooks (2xCD) sergych Jazz и Blues 1 28.06.2018 13:36
Альбом Oscar Peterson - Oscar Peterson Plays Duke Ellington sergych Jazz и Blues 1 05.03.2015 21:44
Альбом Oscar Peterson - Oscar Peterson plays Porgy & Bess sergych Jazz и Blues 0 27.12.2008 07:28


Метки
2010 , bebop , jazz , oscar peterson , plays the best of the great american songbooks , swing

Опции темы

Ваши права в разделе
Вы не можете создавать новые темы
Вы не можете отвечать в темах
Вы не можете прикреплять вложения
Вы не можете редактировать свои сообщения

Быстрый переход



Текущее время: 12:59. Часовой пояс GMT +3.
Powered by vBulletin® Version 3.8.10
Copyright ©2000 - 2019, vBulletin Solutions, Inc. Перевод: zCarot
© 2008 - 2019 Taifun With Song
Яндекс.Метрика