TAIFUN With Song - качественная и редкая музыка
Навигация
Folk (народная) Традиционная музыка отдельно взятого народа или культуры. Она несёт в себе частичку самобытности народа, отражает его ментальность.

А знаете ли Вы, что...
Чья кровь применялась при печати комиксов?
«Участники группы KISS для раскрутки первого комикса о себе сдали кровь и смешали её с красными чернилами в издающей комикс типографии.»
 
Опции темы

  #1
Старый 06.02.2015, 16:51
sergych
Координатор
Досье
 
Аватар для sergych
Релиз Cesaria Evora - Nha Sentimento


2009 - Cesaria Evora - Nha Sentimento




Исполнитель/Artist: Cesaria Evora
Альбом/Album: Nha Sentimento
Год/Year: 2009
Жанр/Genre: Morna, Coladeira
Страна/Country: Россия
Рекорд-лейбл/Record label: Lusafrica / Сони ДАДС
Номер в каталоге/Catalogue #: 88697 61369 2
Формат/Format: Free Lossless Audio Codec (*.flac)
Качество/Quality: Lossless
Тип рипа/RIP Type: image+.cue
Продолжительность/Length: 00:55:39
Источник/Source: Собственный рип
Размер/Size: 400,8 MB

Сканы в комплекте

Треклист

01. Serpentina [0:03:31.60]
02. Verde Cabo Di Nhas Odjos [0:04:10.63]
03. Vento De Sueste [0:04:44.03]
04. Ligereza [0:03:52.21]
05. Zinha [0:03:35.68]
06. Fatalidade [0:03:51.37]
07. Esperança Di Mar Azul [0:04:04.12]
08. Sentimento [0:04:27.46]
09. Tchôm Frio [0:03:51.05]
10. Noiva De Ceu [0:04:04.38]
11. Holandesa Co Certeza [0:03:00.02]
12. Resposta Menininhas De Monte Sossego [0:03:58.61]
13. Mam' Bia É So Mi [0:04:16.58]
14. Parceria E Irmandade [0:04:09.40]
[свернуть]

youtube.com

[свернуть]

EAC лог

Exact Audio Copy V1.0 beta 3 from 29. August 2011

EAC extraction logfile from 6. February 2015, 18:53

Cesaria Evora / Nha Sentimento

Used drive : ATAPI iHAS124 D Adapter: 0 ID: 2

Read mode : Secure
Utilize accurate stream : Yes
Defeat audio cache : Yes
Make use of C2 pointers : No

Read offset correction : 6
Overread into Lead-In and Lead-Out : No
Fill up missing offset samples with silence : Yes
Delete leading and trailing silent blocks : No
Null samples used in CRC calculations : Yes
Used interface : Installed external ASPI interface

Used output format : User Defined Encoder
Selected bitrate : 1024 kBit/s
Quality : High
Add ID3 tag : No
Command line compressor : C:\Program Files (x86)\Exact Audio Copy\Flac\flac.exe
Additional command line options : -6 -V -T "ARTIST=%artist%" -T "TITLE=%title%" -T "ALBUM=%albumtitle%" -T "DATE=%year%" -T "TRACKNUMBER=%tracknr%" -T "GENRE=%genre%" -T "COMMENT=%comment%" -T "BAND=%albuminterpret%" -T "COMPOSER=%composer%" %haslyrics%--tag-from-file=LYRICS="%lyricsfile%"%haslyrics% -T "DISCNUMBER=%cdnumber%" -T "TOTALDISCS=%totalcds%" -T "TOTALTRACKS=%numtracks%" %hascover%--picture="%coverfile%"%hascover% %source% -o %dest%


TOC of the extracted CD

Track | Start | Length | Start sector | End sector
---------------------------------------------------------
1 | 0:00.00 | 3:31.60 | 0 | 15884
2 | 3:31.60 | 4:10.63 | 15885 | 34697
3 | 7:42.48 | 4:44.03 | 34698 | 56000
4 | 12:26.51 | 3:52.21 | 56001 | 73421
5 | 16:18.72 | 3:35.68 | 73422 | 89614
6 | 19:54.65 | 3:51.37 | 89615 | 106976
7 | 23:46.27 | 4:04.12 | 106977 | 125288
8 | 27:50.39 | 4:27.46 | 125289 | 145359
9 | 32:18.10 | 3:51.05 | 145360 | 162689
10 | 36:09.15 | 4:04.38 | 162690 | 181027
11 | 40:13.53 | 3:00.02 | 181028 | 194529
12 | 43:13.55 | 3:58.61 | 194530 | 212440
13 | 47:12.41 | 4:16.58 | 212441 | 231698
14 | 51:29.24 | 4:09.40 | 231699 | 250413
15 | 58:10.64 | 6:37.13 | 261814 | 291601


Range status and errors

Selected range

Filename C:\mm\Cesaria Evora\2009 - Nha Sentimento [88697 61369 2]\Cesaria Evora - Nha Sentimento.wav

Peak level 99.9 %
Extraction speed 9.3 X
Range quality 100.0 %
Test CRC F2A8BE58
Copy CRC F2A8BE58
Copy OK

No errors occurred


AccurateRip summary

Track 1 cannot be verified as accurate (confidence 26) [3348B2B6], AccurateRip returned [133496E0] (AR v2)
Track 2 cannot be verified as accurate (confidence 27) [0187DB19], AccurateRip returned [74509107] (AR v2)
Track 3 cannot be verified as accurate (confidence 27) [B9EEE392], AccurateRip returned [875A142C] (AR v2)
Track 4 cannot be verified as accurate (confidence 27) [18EC130A], AccurateRip returned [8481FA97] (AR v2)
Track 5 cannot be verified as accurate (confidence 27) [FC7994DC], AccurateRip returned [531C5862] (AR v2)
Track 6 cannot be verified as accurate (confidence 27) [665ECE4A], AccurateRip returned [064998AE] (AR v2)
Track 7 cannot be verified as accurate (confidence 27) [5CC631FD], AccurateRip returned [D9D31E70] (AR v2)
Track 8 cannot be verified as accurate (confidence 27) [9ECD2677], AccurateRip returned [CDD58701] (AR v2)
Track 9 cannot be verified as accurate (confidence 27) [DB2F9B86], AccurateRip returned [405C8F8C] (AR v2)
Track 10 cannot be verified as accurate (confidence 27) [B066D46A], AccurateRip returned [8A8E1D7B] (AR v2)
Track 11 cannot be verified as accurate (confidence 27) [7DF1EC69], AccurateRip returned [A2EDA6D1] (AR v2)
Track 12 cannot be verified as accurate (confidence 27) [76BAB136], AccurateRip returned [B26EB51C] (AR v2)
Track 13 cannot be verified as accurate (confidence 27) [A09C1BFF], AccurateRip returned [8BBA6D2C] (AR v2)
Track 14 cannot be verified as accurate (confidence 27) [B6AEB4AD], AccurateRip returned [1C0AAE21] (AR v2)

No tracks could be verified as accurate
You may have a different pressing from the one(s) in the database

End of status report
[свернуть]

Файл CUE

REM GENRE Latin
REM DATE 2009
REM DISCID D40F300F
REM COMMENT "ExactAudioCopy v1.0b3"
PERFORMER "Cesaria Evora"
TITLE "Nha Sentimento"
FILE "Cesaria Evora - Nha Sentimento.flac" WAVE
TRACK 01 AUDIO
TITLE "Serpentina"
PERFORMER "Cesaria Evora"
INDEX 01 00:00:00
TRACK 02 AUDIO
TITLE "Verde Cabo Di Nhas Odjos"
PERFORMER "Cesaria Evora"
INDEX 01 03:31:60
TRACK 03 AUDIO
TITLE "Vento De Sueste"
PERFORMER "Cesaria Evora"
INDEX 01 07:42:48
TRACK 04 AUDIO
TITLE "Ligereza"
PERFORMER "Cesaria Evora"
INDEX 01 12:26:51
TRACK 05 AUDIO
TITLE "Zinha"
PERFORMER "Cesaria Evora"
INDEX 01 16:18:72
TRACK 06 AUDIO
TITLE "Fatalidade"
PERFORMER "Cesaria Evora"
INDEX 01 19:54:65
TRACK 07 AUDIO
TITLE "Esperanca Di Mar Azul"
PERFORMER "Cesaria Evora"
INDEX 01 23:46:27
TRACK 08 AUDIO
TITLE "Sentimento"
PERFORMER "Cesaria Evora"
INDEX 01 27:50:39
TRACK 09 AUDIO
TITLE "Tchom Frio"
PERFORMER "Cesaria Evora"
INDEX 01 32:18:10
TRACK 10 AUDIO
TITLE "Noiva De Ceu"
PERFORMER "Cesaria Evora"
INDEX 01 36:09:15
TRACK 11 AUDIO
TITLE "Holandesa Co Certeza"
PERFORMER "Cesaria Evora"
INDEX 01 40:13:53
TRACK 12 AUDIO
TITLE "Resposta Menininhas De Monte Sossego"
PERFORMER "Cesaria Evora"
INDEX 01 43:13:55
TRACK 13 AUDIO
TITLE "Mam' Bia E So Mi"
PERFORMER "Cesaria Evora"
INDEX 01 47:12:41
TRACK 14 AUDIO
TITLE "Parceria E Irmandade"
PERFORMER "Cesaria Evora"
INDEX 01 51:29:24
[свернуть]

Лог проверки качества

AUDIOCHECKER v2.0 beta (build 457) - by Dester - [Ссылки могут видеть только зарегистрированные и активированные пользователи.]
[Only registered and activated users can see links.]
~~~~~~~~~~~~~~~~~~~~~~~~~~~~~~~~~~
-=== НЕ РЕДАКТИРУЙТЕ ЭТОТ ФАЙЛ! ===-

Путь: ...\2009 - Nha Sentimento [88697 61369 2]

1 -=- Cesaria Evora - Nha Sentimento.flac -=- CDDA (100%)

143482692
[свернуть]

Спектр частот

[свернуть]

Скачать Cesaria Evora - Nha Sentimento

[Ссылки могут видеть только зарегистрированные и активированные пользователи.]
[Only registered and activated users can see links.]

password: sergych
[свернуть]
My opinion of release: 9/10
__________________
TAIFUN.Wings of Soul

Вверх
Пользователь сказал cпасибо:
TAIFUN (06.02.2015)
Похожие темы
Тема Автор Раздел Ответов Последнее сообщение
Сборник Cesaria Evora - Anthologie sergych Folk (народная) 0 23.01.2015 20:35
Альбом Cesaria Evora - Cabo Verde sergych Folk (народная) 0 21.01.2015 19:03
Релиз Cesaria Evora - Grand Collection fly123 Jazz и Blues 0 18.12.2011 15:48


Метки
2009 , cesaria evora , coladeira , morna , nha sentimento

Опции темы

Ваши права в разделе
Вы не можете создавать новые темы
Вы не можете отвечать в темах
Вы не можете прикреплять вложения
Вы не можете редактировать свои сообщения

Быстрый переход



Текущее время: 01:58. Часовой пояс GMT +3.
Powered by vBulletin® Version 3.8.10
Copyright ©2000 - 2019, vBulletin Solutions, Inc. Перевод: zCarot
© 2008 - 2019 Taifun With Song
Яндекс.Метрика