1
[Сборник] Cesaria Evora - Anthologie - TAIFUN With Song
TAIFUN With Song
Навигация
Folk (народная) Традиционная музыка отдельно взятого народа или культуры. Она несёт в себе частичку самобытности народа, отражает его ментальность.

А знаете ли Вы, что...
Кто написал чёрный квадрат за четверть века до Малевича?
«Французский писатель и юморист Альфонс Алле за четверть века до Казимира Малевича написал чёрный квадрат — картину под названием «Битва негров в пещере глубокой ночью». Также он почти на семьдесят лет предвосхитил минималистическую музыкальную пьесу из одной тишины «4’33"» Джона Кейджа своим аналогичным произведением «Траурный марш для похорон великого глухого».»
 
Опции темы

  #1
Старый 23.01.2015, 21:35
sergych
Координатор
Досье
 
Аватар для sergych
Релиз Cesaria Evora - Anthologie


2009 - Cesaria Evora - Anthologie




Исполнитель/Artist: Cesaria Evora
Альбом/Album: Anthologie
Год/Year: 2009
Жанр/Genre: Morna, Coladeira
Страна/Country: Румыния
Рекорд-лейбл/Record label: Nova Music / Sony Music
Номер в каталоге/Catalogue #: NM 397-2
Формат/Format: Free Lossless Audio Codec (*.flac)
Качество/Quality: Lossless
Тип рипа/RIP Type: image+.cue
Продолжительность/Length: 01:13:05
Источник/Source: Собственный рип
Размер/Size: 505.1 MB

Сканы в комплекте

Треклист

01. Sodade (inedite en duo avec bonga) [0:04:56.13]
02. Fala Pa Fala (inedit) [0:04:31.07]
03. Carnaval De Sгo Vicente [0:03:49.64]
04. Crepuscular Solidгo [0:05:31.66]
05. Cize [0:05:21.59]
06. Petit Pays [0:03:46.56]
07. Tchintchirote [0:03:14.57]
08. Angola [0:04:30.50]
09. Vida Tem Um So Vida [0:05:38.38]
10. Bondade E Maldade [0:05:01.14]
11. Sangue De Beirona [0:03:34.35]
12. Flor Di Nha Esperanзa [0:04:15.74]
13. Lua Nha Testemunha [0:06:22.01]
14. Esperanca Irisada [0:04:29.38]
15. Nho Antone Escaderode [0:03:46.10]
16. Fidjo Maguado (inedit) [0:04:13.72]
[свернуть]

youtube.com

[свернуть]

EAC лог

Exact Audio Copy V1.0 beta 3 from 29. August 2011

EAC extraction logfile from 22. January 2015, 20:46

Cesaria Evora / Anthology

Used drive : ATAPI iHAS124 D Adapter: 0 ID: 2

Read mode : Secure
Utilize accurate stream : Yes
Defeat audio cache : Yes
Make use of C2 pointers : No

Read offset correction : 6
Overread into Lead-In and Lead-Out : No
Fill up missing offset samples with silence : Yes
Delete leading and trailing silent blocks : No
Null samples used in CRC calculations : Yes
Used interface : Installed external ASPI interface

Used output format : User Defined Encoder
Selected bitrate : 1024 kBit/s
Quality : High
Add ID3 tag : No
Command line compressor : C:\Program Files (x86)\Exact Audio Copy\Flac\flac.exe
Additional command line options : -6 -V -T "ARTIST=%artist%" -T "TITLE=%title%" -T "ALBUM=%albumtitle%" -T "DATE=%year%" -T "TRACKNUMBER=%tracknr%" -T "GENRE=%genre%" -T "COMMENT=%comment%" -T "BAND=%albuminterpret%" -T "COMPOSER=%composer%" %haslyrics%--tag-from-file=LYRICS="%lyricsfile%"%haslyrics% -T "DISCNUMBER=%cdnumber%" -T "TOTALDISCS=%totalcds%" -T "TOTALTRACKS=%numtracks%" %hascover%--picture="%coverfile%"%hascover% %source% -o %dest%


TOC of the extracted CD

Track | Start | Length | Start sector | End sector
---------------------------------------------------------
1 | 0:00.00 | 4:56.13 | 0 | 22212
2 | 4:56.13 | 4:31.07 | 22213 | 42544
3 | 9:27.20 | 3:49.64 | 42545 | 59783
4 | 13:17.09 | 5:31.66 | 59784 | 84674
5 | 18:49.00 | 5:21.59 | 84675 | 108808
6 | 24:10.59 | 3:46.56 | 108809 | 125814
7 | 27:57.40 | 3:14.57 | 125815 | 140421
8 | 31:12.22 | 4:30.50 | 140422 | 160721
9 | 35:42.72 | 5:38.38 | 160722 | 186109
10 | 41:21.35 | 5:01.14 | 186110 | 208698
11 | 46:22.49 | 3:34.35 | 208699 | 224783
12 | 49:57.09 | 4:15.74 | 224784 | 243982
13 | 54:13.08 | 6:22.01 | 243983 | 272633
14 | 60:35.09 | 4:29.38 | 272634 | 292846
15 | 65:04.47 | 3:46.10 | 292847 | 309806
16 | 68:50.57 | 4:13.72 | 309807 | 328853


Range status and errors

Selected range

Filename C:\mm\Cesaria Evora\2009 - Anthologie [NM 397-2]\Cesaria Evora - Anthology.wav

Peak level 98.8 %
Extraction speed 8.9 X
Range quality 99.9 %
Test CRC D2348BBA
Copy CRC D2348BBA
Copy OK

No errors occurred


AccurateRip summary

Track 1 accurately ripped (confidence 3) [5DAB4A07] (AR v1)
Track 2 accurately ripped (confidence 3) [B7AF1718] (AR v1)
Track 3 accurately ripped (confidence 2) [1CBAA194] (AR v2)
Track 4 accurately ripped (confidence 3) [DC75624A] (AR v1)
Track 5 accurately ripped (confidence 3) [8058E8B3] (AR v1)
Track 6 accurately ripped (confidence 3) [F775E21B] (AR v1)
Track 7 accurately ripped (confidence 3) [DE6D9DCD] (AR v1)
Track 8 accurately ripped (confidence 3) [35350458] (AR v1)
Track 9 accurately ripped (confidence 3) [E3D4F0E9] (AR v1)
Track 10 accurately ripped (confidence 3) [423542DF] (AR v1)
Track 11 accurately ripped (confidence 2) [52E81C61] (AR v2)
Track 12 accurately ripped (confidence 3) [90452F17] (AR v1)
Track 13 accurately ripped (confidence 3) [AC7C9AD9] (AR v1)
Track 14 accurately ripped (confidence 2) [CD7C2D58] (AR v2)
Track 15 accurately ripped (confidence 3) [3AE417EC] (AR v1)
Track 16 accurately ripped (confidence 3) [436859D3] (AR v1)

All tracks accurately ripped

End of status report
[свернуть]

Файл CUE

REM GENRE Morna
REM DATE 2009
REM DISCID 0C112010
REM COMMENT "ExactAudioCopy v1.0b3"
PERFORMER "Cesaria Evora"
TITLE "Anthology"
FILE "Cesaria Evora - Anthology.flac" WAVE
TRACK 01 AUDIO
TITLE "Sodade (inedite en duo avec bonga)"
PERFORMER "Cesaria Evora"
INDEX 01 00:00:00
TRACK 02 AUDIO
TITLE "Fala Pa Fala (inedit)"
PERFORMER "Cesaria Evora"
INDEX 00 04:54:13
INDEX 01 04:56:13
TRACK 03 AUDIO
TITLE "Carnaval De Sгo Vicente"
PERFORMER "Cesaria Evora"
INDEX 00 09:25:20
INDEX 01 09:27:20
TRACK 04 AUDIO
TITLE "Crepuscular Solidгo"
PERFORMER "Cesaria Evora"
INDEX 00 13:15:09
INDEX 01 13:17:09
TRACK 05 AUDIO
TITLE "Cize"
PERFORMER "Cesaria Evora"
INDEX 00 18:47:00
INDEX 01 18:49:00
TRACK 06 AUDIO
TITLE "Petit Pays"
PERFORMER "Cesaria Evora"
INDEX 00 24:08:59
INDEX 01 24:10:59
TRACK 07 AUDIO
TITLE "Tchintchirote"
PERFORMER "Cesaria Evora"
INDEX 00 27:55:40
INDEX 01 27:57:40
TRACK 08 AUDIO
TITLE "Angola"
PERFORMER "Cesaria Evora"
INDEX 00 31:10:22
INDEX 01 31:12:22
TRACK 09 AUDIO
TITLE "Vida Tem Um So Vida"
PERFORMER "Cesaria Evora"
INDEX 00 35:40:72
INDEX 01 35:42:72
TRACK 10 AUDIO
TITLE "Bondade E Maldade"
PERFORMER "Cesaria Evora"
INDEX 00 41:19:35
INDEX 01 41:21:35
TRACK 11 AUDIO
TITLE "Sangue De Beirona"
PERFORMER "Cesaria Evora"
INDEX 00 46:20:49
INDEX 01 46:22:49
TRACK 12 AUDIO
TITLE "Flor Di Nha Esperanзa"
PERFORMER "Cesaria Evora"
INDEX 00 49:55:09
INDEX 01 49:57:09
TRACK 13 AUDIO
TITLE "Lua Nha Testemunha"
PERFORMER "Cesaria Evora"
INDEX 00 54:11:08
INDEX 01 54:13:08
TRACK 14 AUDIO
TITLE "Esperanca Irisada"
PERFORMER "Cesaria Evora"
INDEX 00 60:33:09
INDEX 01 60:35:09
TRACK 15 AUDIO
TITLE "Nho Antone Escaderode"
PERFORMER "Cesaria Evora"
INDEX 00 65:02:47
INDEX 01 65:04:47
TRACK 16 AUDIO
TITLE "Fidjo Maguado (inedit)"
PERFORMER "Cesaria Evora"
INDEX 00 68:48:57
INDEX 01 68:50:57
[свернуть]

Лог проверки качества

AUDIOCHECKER v2.0 beta (build 457) - by Dester - [Ссылки могут видеть только зарегистрированные и активированные пользователи.]
[Only registered and activated users can see links.]
~~~~~~~~~~~~~~~~~~~~~~~~~~~~~~~~~~
-=== НЕ РЕДАКТИРУЙТЕ ЭТОТ ФАЙЛ! ===-

Путь: ...\2009 - Anthologie [NM 397-2]

1 -=- Cesaria Evora - Anthology.flac -=- CDDA (100%)

174005892
[свернуть]

Спектр частот

[свернуть]

Скачать Cesaria Evora - Anthologie

[Ссылки могут видеть только зарегистрированные и активированные пользователи.]
[Only registered and activated users can see links.]

password: sergych
[свернуть]
My opinion of release: 10/10
__________________
TAIFUN.Wings of Soul

Вверх
Похожие темы
Тема Автор Раздел Ответов Последнее сообщение
Альбом Cesaria Evora - Cabo Verde sergych Folk (народная) 0 21.01.2015 20:03
Релиз Cesaria Evora - Grand Collection fly123 Jazz и Blues 0 18.12.2011 16:48


Метки
2009 , anthologie , cesaria evora , coladeira , morna

Опции темы

Ваши права в разделе
Вы не можете создавать новые темы
Вы не можете отвечать в темах
Вы не можете прикреплять вложения
Вы не можете редактировать свои сообщения

Быстрый переход



Текущее время: 18:19. Часовой пояс GMT +3.
Powered by vBulletin® Version 3.8.10
Copyright ©2000 - 2019, vBulletin Solutions, Inc. Перевод: zCarot
© 2008 - 2019 Taifun With Song
Яндекс.Метрика