TAIFUN With Song - качественная и редкая музыка
Навигация
Вернуться   TAIFUN With Song - качественная и редкая музыка > Music (обменник) > POP > Зарубежная Поп-Музыка
Расширенный поиск
А знаете ли Вы, что...
Почему в радуге выделяют 7 цветов?
«Хотя многоцветный спектр радуги непрерывен, по традиции в нём выделяют 7 цветов. Считают, что первым выбрал это число Исаак Ньютон. Причём первоначально он различал только пять цветов — красный, жёлтый, зелёный, голубой и фиолетовый, о чём и написал в своей «Оптике». Но впоследствии, стремясь создать соответствие между числом цветов спектра и числом основных тонов музыкальной гаммы, Ньютон добавил ещё два цвета.»
 
Опции темы

  #1
Старый 22.12.2014, 20:12
sergych
Координатор
Досье
 
Аватар для sergych
Релиз Whitney Houston - I Will Always Love You: The Best of Whitney Houston


2012 - Whitney Houston - I Will Always Love You: The Best of Whitney Houston




Исполнитель/Artist: Whitney Houston
Альбом/Album: I Will Always Love You: The Best of Whitney Houston
Год/Year: 2012
Жанр/Genre: R&B, pop, soul, dance
Страна/Country: Россия
Рекорд-лейбл/Record label: RCA Records / СОНИ ДАДС
Номер в каталоге/Catalogue #: 88765421482
Формат/Format: Free Lossless Audio Codec (*.flac)
Качество/Quality: Lossless
Тип рипа/RIP Type: image+.cue
Продолжительность/Length: 02:22:36
Источник/Source: Собственный рип
Размер/Size: 946.5 MB

Сканы в комплекте

Треклист

CD1
01. You Give Good Love [0:04:36.14]
02. Saving All My Love For You [0:03:58.36]
03. How Will I Know [0:04:34.65]
04. Greatest Love Of All [0:04:50.09]
05. I Wanna Dance With Somebody (Who Loves Me) [0:04:52.09]
06. Didn't We Almost Have It All [0:05:07.02]
07. So Emotional [0:04:37.54]
08. Where Do Broken Hearts Go [0:04:38.28]
09. I'm Your Baby Tonight [0:05:01.61]
10. All The Man That I Need [0:04:11.16]
11. I Will Always Love You [0:04:33.34]
12. I'm Every Woman [0:04:47.32]
13. I Have Nothing [0:04:52.58]
14. Exhale (Shoop Shoop) [0:03:23.19]
15. I Believe In You And Me [0:03:54.35]
16. My Love Is Your Love [0:04:05.46]
17. I Look To You (With R. Kelly) [0:03:39.53]
18. Never Give Up [0:04:01.25]

CD2
01. Love Will Save The Day [0:05:22.19]
02. One Moment In Time [0:04:45.00]
03. It Isn't, It Wasn't, It Ain't Never Gonna Be (with Aretha Franklin) [0:04:50.13]
04. My Name Is Not Susan [0:04:37.58]
05. I Belong To You [0:05:29.63]
06. Run To You [0:04:25.26]
07. Queen Of The Night [0:03:08.51]
08. Count On Me (with CeCe Winans) [0:04:27.36]
09. Step By Step [0:04:12.58]
10. It's Not Right But It's Okay [0:04:51.21]
11. I Learned From The Best [0:03:56.53]
12. If I Told You That [0:04:37.11]
13. Heartbreak Hotel (feat. Faith Evans & Kelly Price) [0:04:42.07]
14. Million Dollar Bill [0:03:24.19]
[свернуть]

youtube.com

[свернуть]

EAC лог

CD1
Exact Audio Copy V1.0 beta 3 from 29. August 2011

EAC extraction logfile from 14. October 2013, 23:50

Whitney Houston / I Will Always Love You - The Best Of Whitney Houston - CD 1

Used drive : ATAPI iHAS124 D Adapter: 0 ID: 2

Read mode : Secure
Utilize accurate stream : Yes
Defeat audio cache : Yes
Make use of C2 pointers : No

Read offset correction : 6
Overread into Lead-In and Lead-Out : No
Fill up missing offset samples with silence : Yes
Delete leading and trailing silent blocks : No
Null samples used in CRC calculations : Yes
Used interface : Installed external ASPI interface

Used output format : User Defined Encoder
Selected bitrate : 1024 kBit/s
Quality : High
Add ID3 tag : No
Command line compressor : C:\Program Files (x86)\Exact Audio Copy\Flac\flac.exe
Additional command line options : -6 -V -T "ARTIST=%artist%" -T "TITLE=%title%" -T "ALBUM=%albumtitle%" -T "DATE=%year%" -T "TRACKNUMBER=%tracknr%" -T "GENRE=%genre%" -T "COMMENT=%comment%" -T "BAND=%albuminterpret%" -T "COMPOSER=%composer%" %haslyrics%--tag-from-file=LYRICS="%lyricsfile%"%haslyrics% -T "DISCNUMBER=%cdnumber%" -T "TOTALDISCS=%totalcds%" -T "TOTALTRACKS=%numtracks%" %hascover%--picture="%coverfile%"%hascover% %source% -o %dest%


TOC of the extracted CD

Track | Start | Length | Start sector | End sector
---------------------------------------------------------
1 | 0:00.00 | 4:36.14 | 0 | 20713
2 | 4:36.14 | 3:58.36 | 20714 | 38599
3 | 8:34.50 | 4:34.65 | 38600 | 59214
4 | 13:09.40 | 4:50.09 | 59215 | 80973
5 | 17:59.49 | 4:52.09 | 80974 | 102882
6 | 22:51.58 | 5:07.02 | 102883 | 125909
7 | 27:58.60 | 4:37.54 | 125910 | 146738
8 | 32:36.39 | 4:38.28 | 146739 | 167616
9 | 37:14.67 | 5:01.61 | 167617 | 190252
10 | 42:16.53 | 4:11.16 | 190253 | 209093
11 | 46:27.69 | 4:33.34 | 209094 | 229602
12 | 51:01.28 | 4:47.32 | 229603 | 251159
13 | 55:48.60 | 4:52.58 | 251160 | 273117
14 | 60:41.43 | 3:23.19 | 273118 | 288361
15 | 64:04.62 | 3:54.35 | 288362 | 305946
16 | 67:59.22 | 4:05.46 | 305947 | 324367
17 | 72:04.68 | 3:39.53 | 324368 | 340845
18 | 75:44.46 | 4:01.25 | 340846 | 358945


Range status and errors

Selected range

Filename C:\mm\Whitney Houston\2012 - I Will Always Love You. The Best Of\I Will Always Love You. The Best Of Whitney Houston. CD1.wav

Peak level 100.0 %
Extraction speed 3.9 X
Range quality 100.0 %
Test CRC B4EE9A5F
Copy CRC B4EE9A5F
Copy OK

No errors occurred


AccurateRip summary

Track 1 cannot be verified as accurate (confidence 13) [25A35F04], AccurateRip returned [C059C300] (AR v2)
Track 2 cannot be verified as accurate (confidence 13) [6F1D9500], AccurateRip returned [6CE20C5F] (AR v2)
Track 3 cannot be verified as accurate (confidence 13) [6C543892], AccurateRip returned [3CF4DF71] (AR v2)
Track 4 cannot be verified as accurate (confidence 13) [B5ABE1CC], AccurateRip returned [F45FAA2C] (AR v2)
Track 5 cannot be verified as accurate (confidence 13) [25DB7E5B], AccurateRip returned [E0C7E97A] (AR v2)
Track 6 cannot be verified as accurate (confidence 13) [A2882B95], AccurateRip returned [CA50DAD0] (AR v2)
Track 7 cannot be verified as accurate (confidence 13) [D1F2AAC8], AccurateRip returned [55DDEC16] (AR v2)
Track 8 cannot be verified as accurate (confidence 13) [8BDB652A], AccurateRip returned [EBB65EB3] (AR v2)
Track 9 cannot be verified as accurate (confidence 13) [814B3546], AccurateRip returned [E6736070] (AR v2)
Track 10 cannot be verified as accurate (confidence 13) [08BB5787], AccurateRip returned [63403EEA] (AR v2)
Track 11 cannot be verified as accurate (confidence 14) [C7B75F9F], AccurateRip returned [ADCA3AF7] (AR v2)
Track 12 cannot be verified as accurate (confidence 13) [0124ABB9], AccurateRip returned [27D09E4C] (AR v2)
Track 13 cannot be verified as accurate (confidence 13) [6EF848BF], AccurateRip returned [3D81DADE] (AR v2)
Track 14 cannot be verified as accurate (confidence 13) [30345A79], AccurateRip returned [5A4750CC] (AR v2)
Track 15 cannot be verified as accurate (confidence 12) [5A8CA2EE], AccurateRip returned [5753C7B6] (AR v2)
Track 16 cannot be verified as accurate (confidence 13) [B663B2FC], AccurateRip returned [0B4407A1] (AR v2)
Track 17 cannot be verified as accurate (confidence 13) [192220E7], AccurateRip returned [91B9CDA5] (AR v2)
Track 18 cannot be verified as accurate (confidence 12) [F6512C7A], AccurateRip returned [27D988BF] (AR v2)

No tracks could be verified as accurate
You may have a different pressing from the one(s) in the database

End of status report

---- CUETools DB Plugin V2.1.3

[CTDB TOCID: 20SPAy0AV1XE1pGJdKMZSVM738M-] found, Submit result: 20SPAy0AV1XE1pGJdKMZSVM738M- has been confirmed
[cdad423e] (33/33) Accurately ripped

CD2
Exact Audio Copy V1.0 beta 3 from 29. August 2011

EAC extraction logfile from 15. October 2013, 8:30

Whitney Houston / I Will Always Love You. The Best of Whitney Houston. CD2

Used drive : ATAPI iHAS124 D Adapter: 0 ID: 2

Read mode : Secure
Utilize accurate stream : Yes
Defeat audio cache : Yes
Make use of C2 pointers : No

Read offset correction : 6
Overread into Lead-In and Lead-Out : No
Fill up missing offset samples with silence : Yes
Delete leading and trailing silent blocks : No
Null samples used in CRC calculations : Yes
Used interface : Installed external ASPI interface

Used output format : User Defined Encoder
Selected bitrate : 1024 kBit/s
Quality : High
Add ID3 tag : No
Command line compressor : C:\Program Files (x86)\Exact Audio Copy\Flac\flac.exe
Additional command line options : -6 -V -T "ARTIST=%artist%" -T "TITLE=%title%" -T "ALBUM=%albumtitle%" -T "DATE=%year%" -T "TRACKNUMBER=%tracknr%" -T "GENRE=%genre%" -T "COMMENT=%comment%" -T "BAND=%albuminterpret%" -T "COMPOSER=%composer%" %haslyrics%--tag-from-file=LYRICS="%lyricsfile%"%haslyrics% -T "DISCNUMBER=%cdnumber%" -T "TOTALDISCS=%totalcds%" -T "TOTALTRACKS=%numtracks%" %hascover%--picture="%coverfile%"%hascover% %source% -o %dest%


TOC of the extracted CD

Track | Start | Length | Start sector | End sector
---------------------------------------------------------
1 | 0:00.00 | 5:22.19 | 0 | 24168
2 | 5:22.19 | 4:45.00 | 24169 | 45543
3 | 10:07.19 | 4:50.13 | 45544 | 67306
4 | 14:57.32 | 4:37.58 | 67307 | 88139
5 | 19:35.15 | 5:29.63 | 88140 | 112877
6 | 25:05.03 | 4:25.26 | 112878 | 132778
7 | 29:30.29 | 3:08.51 | 132779 | 146929
8 | 32:39.05 | 4:27.36 | 146930 | 166990
9 | 37:06.41 | 4:12.58 | 166991 | 185948
10 | 41:19.24 | 4:51.21 | 185949 | 207794
11 | 46:10.45 | 3:56.53 | 207795 | 225547
12 | 50:07.23 | 4:37.11 | 225548 | 246333
13 | 54:44.34 | 4:42.07 | 246334 | 267490
14 | 59:26.41 | 3:24.19 | 267491 | 282809


Range status and errors

Selected range

Filename C:\mm\Whitney Houston\2012 - I Will Always Love You. The Best Of\I Will Always Love You. The Best of Whitney Houston. CD2.wav

Peak level 100.0 %
Extraction speed 3.5 X
Range quality 100.0 %
Test CRC D349A8BE
Copy CRC D349A8BE
Copy OK

No errors occurred


AccurateRip summary

Track 1 cannot be verified as accurate (confidence 8) [87816430], AccurateRip returned [847A9A30] (AR v2)
Track 2 cannot be verified as accurate (confidence 8) [596D5D01], AccurateRip returned [7A4108CA] (AR v2)
Track 3 cannot be verified as accurate (confidence 8) [018F21F8], AccurateRip returned [343AAB03] (AR v2)
Track 4 cannot be verified as accurate (confidence 8) [7BF54C3A], AccurateRip returned [1CEF2D5F] (AR v2)
Track 5 cannot be verified as accurate (confidence 8) [1E215979], AccurateRip returned [05861F36] (AR v2)
Track 6 cannot be verified as accurate (confidence 8) [9992B737], AccurateRip returned [4F6CF1AA] (AR v2)
Track 7 cannot be verified as accurate (confidence 8) [CC5E5497], AccurateRip returned [3729985A] (AR v2)
Track 8 cannot be verified as accurate (confidence 8) [764B5E8B], AccurateRip returned [764F584E] (AR v2)
Track 9 cannot be verified as accurate (confidence 8) [B146E246], AccurateRip returned [65D91022] (AR v2)
Track 10 cannot be verified as accurate (confidence 8) [ED59BE83], AccurateRip returned [83EB2D00] (AR v2)
Track 11 cannot be verified as accurate (confidence 8) [CE5FBB33], AccurateRip returned [5A34AC32] (AR v2)
Track 12 cannot be verified as accurate (confidence 8) [2DC7F22F], AccurateRip returned [B892CDBE] (AR v2)
Track 13 cannot be verified as accurate (confidence 8) [0F20A8D7], AccurateRip returned [09ED99CF] (AR v2)
Track 14 cannot be verified as accurate (confidence 8) [535C3780], AccurateRip returned [ABFFD673] (AR v2)

No tracks could be verified as accurate
You may have a different pressing from the one(s) in the database

End of status report

---- CUETools DB Plugin V2.1.3

[CTDB TOCID: t5YESqMOn7HK6y14L1mDfIfOWlM-] found, Submit result: t5YESqMOn7HK6y14L1mDfIfOWlM- has been confirmed
[c5871e63] (13/13) Accurately ripped
[свернуть]

Файл CUE

CD1
REM GENRE Pop
REM DATE 2012
REM DISCID 1312B112
REM COMMENT "ExactAudioCopy v1.0b3"
PERFORMER "Whitney Houston"
TITLE "I Will Always Love You - The Best Of Whitney Houston - CD 1"
FILE "I Will Always Love You. The Best Of Whitney Houston. CD1.flac" WAVE
TRACK 01 AUDIO
TITLE "You Give Good Love"
PERFORMER "Whitney Houston"
INDEX 01 00:00:00
TRACK 02 AUDIO
TITLE "Saving All My Love For You"
PERFORMER "Whitney Houston"
INDEX 01 04:36:14
TRACK 03 AUDIO
TITLE "How Will I Know"
PERFORMER "Whitney Houston"
INDEX 00 08:33:38
INDEX 01 08:34:50
TRACK 04 AUDIO
TITLE "Greatest Love Of All"
PERFORMER "Whitney Houston"
INDEX 00 13:08:06
INDEX 01 13:09:40
TRACK 05 AUDIO
TITLE "I Wanna Dance With Somebody (Who Loves Me)"
PERFORMER "Whitney Houston"
INDEX 00 17:58:15
INDEX 01 17:59:49
TRACK 06 AUDIO
TITLE "Didn't We Almost Have It All"
PERFORMER "Whitney Houston"
INDEX 00 22:50:06
INDEX 01 22:51:58
TRACK 07 AUDIO
TITLE "So Emotional"
PERFORMER "Whitney Houston"
INDEX 00 27:57:20
INDEX 01 27:58:60
TRACK 08 AUDIO
TITLE "Where Do Broken Hearts Go"
PERFORMER "Whitney Houston"
INDEX 00 32:34:61
INDEX 01 32:36:39
TRACK 09 AUDIO
TITLE "I'm Your Baby Tonight"
PERFORMER "Whitney Houston"
INDEX 00 37:13:15
INDEX 01 37:14:67
TRACK 10 AUDIO
TITLE "All The Man That I Need"
PERFORMER "Whitney Houston"
INDEX 00 42:15:06
INDEX 01 42:16:53
TRACK 11 AUDIO
TITLE "I Will Always Love You"
PERFORMER "Whitney Houston"
INDEX 00 46:26:43
INDEX 01 46:27:69
TRACK 12 AUDIO
TITLE "I'm Every Woman"
PERFORMER "Whitney Houston"
INDEX 00 50:58:51
INDEX 01 51:01:28
TRACK 13 AUDIO
TITLE "I Have Nothing"
PERFORMER "Whitney Houston"
INDEX 00 55:46:59
INDEX 01 55:48:60
TRACK 14 AUDIO
TITLE "Exhale (Shoop Shoop)"
PERFORMER "Whitney Houston"
INDEX 00 60:38:64
INDEX 01 60:41:43
TRACK 15 AUDIO
TITLE "I Believe In You And Me"
PERFORMER "Whitney Houston"
INDEX 00 64:02:69
INDEX 01 64:04:62
TRACK 16 AUDIO
TITLE "My Love Is Your Love"
PERFORMER "Whitney Houston"
INDEX 00 67:57:05
INDEX 01 67:59:22
TRACK 17 AUDIO
TITLE "I Look To You (With R. Kelly)"
PERFORMER "Whitney Houston"
INDEX 00 72:03:01
INDEX 01 72:04:68
TRACK 18 AUDIO
TITLE "Never Give Up"
PERFORMER "Whitney Houston"
INDEX 01 75:44:46

CD2
REM GENRE Pop
REM DATE 2012
REM DISCID D70EBA0E
REM COMMENT "ExactAudioCopy v1.0b3"
PERFORMER "Whitney Houston"
TITLE "I Will Always Love You. The Best of Whitney Houston. CD2"
FILE "I Will Always Love You. The Best of Whitney Houston. CD2.flac" WAVE
TRACK 01 AUDIO
TITLE "Love Will Save The Day"
PERFORMER "Whitney Houston"
INDEX 01 00:00:00
TRACK 02 AUDIO
TITLE "One Moment In Time"
PERFORMER "Whitney Houston"
INDEX 00 05:21:19
INDEX 01 05:22:19
TRACK 03 AUDIO
TITLE "It Isn't, It Wasn't, It Ain't Never Gonna Be (with Aretha Franklin)"
PERFORMER "Whitney Houston"
INDEX 01 10:07:19
TRACK 04 AUDIO
TITLE "My Name Is Not Susan"
PERFORMER "Whitney Houston"
INDEX 01 14:57:32
TRACK 05 AUDIO
TITLE "I Belong To You"
PERFORMER "Whitney Houston"
INDEX 01 19:35:15
TRACK 06 AUDIO
TITLE "Run To You"
PERFORMER "Whitney Houston"
INDEX 01 25:05:03
TRACK 07 AUDIO
TITLE "Queen Of The Night"
PERFORMER "Whitney Houston"
INDEX 00 29:29:26
INDEX 01 29:30:29
TRACK 08 AUDIO
TITLE "Count On Me (with CeCe Winans)"
PERFORMER "Whitney Houston"
INDEX 00 32:37:38
INDEX 01 32:39:05
TRACK 09 AUDIO
TITLE "Step By Step"
PERFORMER "Whitney Houston"
INDEX 00 37:05:36
INDEX 01 37:06:41
TRACK 10 AUDIO
TITLE "It's Not Right But It's Okay"
PERFORMER "Whitney Houston"
INDEX 01 41:19:24
TRACK 11 AUDIO
TITLE "I Learned From The Best"
PERFORMER "Whitney Houston"
INDEX 01 46:10:45
TRACK 12 AUDIO
TITLE "If I Told You That"
PERFORMER "Whitney Houston"
INDEX 01 50:07:23
TRACK 13 AUDIO
TITLE "Heartbreak Hotel (feat. Faith Evans & Kelly Price)"
PERFORMER "Whitney Houston"
INDEX 01 54:44:34
TRACK 14 AUDIO
TITLE "Million Dollar Bill"
PERFORMER "Whitney Houston"
INDEX 01 59:26:41
[свернуть]

Лог проверки качества

AUDIOCHECKER v2.0 beta (build 457) - by Dester - [Ссылки могут видеть только зарегистрированные и активированные пользователи.]
[Only registered and activated users can see links.]
~~~~~~~~~~~~~~~~~~~~~~~~~~~~~~~~~~
-=== НЕ РЕДАКТИРУЙТЕ ЭТОТ ФАЙЛ! ===-

Путь: ...\2012 - I Will Always Love You. The Best Of

1 -=- I Will Always Love You. The Best Of Whitney Houston. CD1.flac -=- CDDA (100%)
2 -=- I Will Always Love You. The Best of Whitney Houston. CD2.flac -=- CDDA (99%)

Сводка 99,50% CDDA

250306980
[свернуть]

Спектр частот


[свернуть]

Скачать Whitney Houston - I Will Always Love You: The Best of Whitney Houston

[Ссылки могут видеть только зарегистрированные и активированные пользователи.]
[Only registered and activated users can see links.]

password: sergych
[свернуть]
My opinion of release: 10/10
__________________
TAIFUN.Wings of Soul


Последний раз редактировалось sergych, 30.12.2018 в 09:53. Причина: заменил ссылку из-за личеров
Вверх
Похожие темы
Тема Автор Раздел Ответов Последнее сообщение
Альбом Whitney Houston - Whitney sergych Зарубежная Поп-Музыка 0 22.12.2014 19:40
Релиз Houston - Relaunch PUPOKIN Rock 0 19.12.2011 10:06
Релиз Marques Houston - Mr Houston PUPOKIN R&B 0 18.09.2009 11:14
Релиз Angie Whitney - That's What Love Is All About PUPOKIN Jazz и Blues 0 09.01.2009 11:37


Метки
2012 , dance , i will always love you: the best of whitney houston , pop , r&b , soul , whitney houston

Опции темы

Ваши права в разделе
Вы не можете создавать новые темы
Вы не можете отвечать в темах
Вы не можете прикреплять вложения
Вы не можете редактировать свои сообщения

Быстрый переход



Текущее время: 18:13. Часовой пояс GMT +3.
Powered by vBulletin® Version 3.8.10
Copyright ©2000 - 2019, vBulletin Solutions, Inc. Перевод: zCarot
© 2008 - 2019 Taifun With Song
Яндекс.Метрика