1
[Альбом] Whitney Houston - Whitney - TAIFUN With Song
TAIFUN With Song
Навигация
А знаете ли Вы, что...
Как реагировала Монсеррат Кабалье, если кто-либо из зрителей записывал концерт на магнитофон?
«Монсеррат Кабалье иногда на своих концертах прибегала к следующей шутке. Если кто-либо из зрителей записывал концерт на магнитофон, и в какой-то момент ему надо было перевернуть кассету, Кабалье прекращала петь. Помолчав несколько секунд, она говорила: «Кивните мне, когда можно будет продолжать».»
 
Опции темы

  #1
Старый 22.12.2014, 19:40
sergych
Координатор
Досье
 
Аватар для sergych
Релиз Whitney Houston - Whitney


1987 - Whitney Houston - Whitney




Исполнитель/Artist: Whitney Houston
Альбом/Album: Whitney
Год/Year: 1987
Жанр/Genre: Pop, R&B, dance, adult contemporary
Страна/Country: Соединённые Штаты
Рекорд-лейбл/Record label: Arista Records
Номер в каталоге/Catalogue #: ARCD 8405
Формат/Format: Free Lossless Audio Codec (*.flac)
Качество/Quality: Lossless
Тип рипа/RIP Type: image+.cue
Продолжительность/Length: 00:53:08
Источник/Source: Собственный рип
Размер/Size: 391.5 MB

Сканы в комплекте

Треклист

01. I Wanna Dance with Somebody (Who Loves Me) [0:04:52.58]
02. Just the Lonely Talking Again [0:05:34.30]
03. Love Will Save the Day [0:05:25.02]
04. Didn't We Almost Have It All [0:05:07.08]
05. So Emotional [0:04:37.10]
06. Where You Are [0:04:11.32]
07. Love Is a Contact Sport [0:04:19.63]
08. You're Still My Man [0:04:18.55]
09. For the Love of You [0:05:33.47]
10. Where Do Broken Hearts Go [0:04:38.65]
11. I Know Him So Well (Duet with Cissy Houston) [0:04:30.03]
[свернуть]

youtube.com

[свернуть]

EAC лог

Exact Audio Copy V1.0 beta 3 from 29. August 2011

EAC extraction logfile from 22. December 2014, 19:48

Whitney Houston / Whitney

Used drive : ATAPI iHAS124 D Adapter: 0 ID: 2

Read mode : Secure
Utilize accurate stream : Yes
Defeat audio cache : Yes
Make use of C2 pointers : No

Read offset correction : 6
Overread into Lead-In and Lead-Out : No
Fill up missing offset samples with silence : Yes
Delete leading and trailing silent blocks : No
Null samples used in CRC calculations : Yes
Used interface : Installed external ASPI interface

Used output format : User Defined Encoder
Selected bitrate : 1024 kBit/s
Quality : High
Add ID3 tag : No
Command line compressor : C:\Program Files (x86)\Exact Audio Copy\Flac\flac.exe
Additional command line options : -6 -V -T "ARTIST=%artist%" -T "TITLE=%title%" -T "ALBUM=%albumtitle%" -T "DATE=%year%" -T "TRACKNUMBER=%tracknr%" -T "GENRE=%genre%" -T "COMMENT=%comment%" -T "BAND=%albuminterpret%" -T "COMPOSER=%composer%" %haslyrics%--tag-from-file=LYRICS="%lyricsfile%"%haslyrics% -T "DISCNUMBER=%cdnumber%" -T "TOTALDISCS=%totalcds%" -T "TOTALTRACKS=%numtracks%" %hascover%--picture="%coverfile%"%hascover% %source% -o %dest%


TOC of the extracted CD

Track | Start | Length | Start sector | End sector
---------------------------------------------------------
1 | 0:00.32 | 4:52.58 | 32 | 21989
2 | 4:53.15 | 5:34.30 | 21990 | 47069
3 | 10:27.45 | 5:25.02 | 47070 | 71446
4 | 15:52.47 | 5:07.08 | 71447 | 94479
5 | 20:59.55 | 4:37.10 | 94480 | 115264
6 | 25:36.65 | 4:11.32 | 115265 | 134121
7 | 29:48.22 | 4:19.63 | 134122 | 153609
8 | 34:08.10 | 4:18.55 | 153610 | 173014
9 | 38:26.65 | 5:33.47 | 173015 | 198036
10 | 44:00.37 | 4:38.65 | 198037 | 218951
11 | 48:39.27 | 4:30.03 | 218952 | 239204


Range status and errors

Selected range

Filename C:\mm\Whitney Houston\1987 - Whitney [ARCD 8405]\Whitney Houston - Whitney.wav

Peak level 100.0 %
Extraction speed 8.7 X
Range quality 100.0 %
Test CRC 36502E87
Copy CRC 36502E87
Copy OK

No errors occurred


AccurateRip summary

Track 1 accurately ripped (confidence 15) [182C8FC5] (AR v2)
Track 2 accurately ripped (confidence 14) [F313ACF3] (AR v2)
Track 3 accurately ripped (confidence 16) [8BC7AB6F] (AR v2)
Track 4 accurately ripped (confidence 15) [592CF6EA] (AR v2)
Track 5 accurately ripped (confidence 15) [485E7E38] (AR v2)
Track 6 accurately ripped (confidence 14) [19CBC94D] (AR v2)
Track 7 accurately ripped (confidence 15) [878E663F] (AR v2)
Track 8 accurately ripped (confidence 14) [C5E1F40D] (AR v2)
Track 9 accurately ripped (confidence 14) [8C94A7AC] (AR v2)
Track 10 accurately ripped (confidence 15) [0A7E20F7] (AR v2)
Track 11 accurately ripped (confidence 15) [76104920] (AR v2)

All tracks accurately ripped

End of status report
[свернуть]

Файл CUE

REM GENRE Pop
REM DATE 1987
REM DISCID 910C750B
REM COMMENT "ExactAudioCopy v1.0b3"
PERFORMER "Whitney Houston"
TITLE "Whitney"
FILE "Whitney Houston - Whitney.flac" WAVE
TRACK 01 AUDIO
TITLE "I Wanna Dance with Somebody (Who Loves Me)"
PERFORMER "Whitney Houston"
INDEX 00 00:00:00
INDEX 01 00:00:32
TRACK 02 AUDIO
TITLE "Just the Lonely Talking Again"
PERFORMER "Whitney Houston"
INDEX 00 04:51:22
INDEX 01 04:53:15
TRACK 03 AUDIO
TITLE "Love Will Save the Day"
PERFORMER "Whitney Houston"
INDEX 00 10:25:65
INDEX 01 10:27:45
TRACK 04 AUDIO
TITLE "Didn't We Almost Have It All"
PERFORMER "Whitney Houston"
INDEX 00 15:49:20
INDEX 01 15:52:47
TRACK 05 AUDIO
TITLE "So Emotional"
PERFORMER "Whitney Houston"
INDEX 00 20:57:52
INDEX 01 20:59:55
TRACK 06 AUDIO
TITLE "Where You Are"
PERFORMER "Whitney Houston"
INDEX 00 25:36:30
INDEX 01 25:36:65
TRACK 07 AUDIO
TITLE "Love Is a Contact Sport"
PERFORMER "Whitney Houston"
INDEX 00 29:47:10
INDEX 01 29:48:22
TRACK 08 AUDIO
TITLE "You're Still My Man"
PERFORMER "Whitney Houston"
INDEX 00 34:07:72
INDEX 01 34:08:10
TRACK 09 AUDIO
TITLE "For the Love of You"
PERFORMER "Whitney Houston"
INDEX 00 38:24:25
INDEX 01 38:26:65
TRACK 10 AUDIO
TITLE "Where Do Broken Hearts Go"
PERFORMER "Whitney Houston"
INDEX 00 43:58:55
INDEX 01 44:00:37
TRACK 11 AUDIO
TITLE "I Know Him So Well (Duet with Cissy Houston)"
PERFORMER "Whitney Houston"
INDEX 00 48:38:07
INDEX 01 48:39:27
[свернуть]

Лог проверки качества

AUDIOCHECKER v2.0 beta (build 457) - by Dester - [Ссылки могут видеть только зарегистрированные и активированные пользователи.]
[Only registered and activated users can see links.]
~~~~~~~~~~~~~~~~~~~~~~~~~~~~~~~~~~
-=== НЕ РЕДАКТИРУЙТЕ ЭТОТ ФАЙЛ! ===-

Путь: ...\1987 - Whitney [ARCD 8405]

1 -=- Whitney Houston - Whitney.flac -=- CDDA (100%)

223515572
[свернуть]

Спектр частот

[свернуть]

Скачать Whitney Houston - Whitney

[Ссылки могут видеть только зарегистрированные и активированные пользователи.]
[Only registered and activated users can see links.]

password: sergych
[свернуть]
My opinion of release: 10/10
__________________
TAIFUN.Wings of Soul

Вверх
Пользователь сказал cпасибо:
Guilli (30.12.2018)
Похожие темы
Тема Автор Раздел Ответов Последнее сообщение
Релиз Houston - Relaunch PUPOKIN Rock 0 19.12.2011 10:06
Релиз Marques Houston - Mr Houston PUPOKIN R&B 0 18.09.2009 11:14
Релиз Angie Whitney - That's What Love Is All About PUPOKIN Jazz и Blues 0 09.01.2009 11:37


Метки
1987 , adult contemporary , dance , houston , pop , r&b , whitney , whitney houston

Опции темы

Ваши права в разделе
Вы не можете создавать новые темы
Вы не можете отвечать в темах
Вы не можете прикреплять вложения
Вы не можете редактировать свои сообщения

Быстрый переход



Текущее время: 17:36. Часовой пояс GMT +3.
Powered by vBulletin® Version 3.8.10
Copyright ©2000 - 2019, vBulletin Solutions, Inc. Перевод: zCarot
© 2008 - 2019 Taifun With Song
Яндекс.Метрика