TAIFUN With Song - качественная и редкая музыка
Навигация
А знаете ли Вы, что...
Какая песня, часто приписываемая Элвису Пресли, никогда им не записывалась?
«Песню «Only You» часто приписывают Элвису Пресли, хотя на самом деле наиболее известными её исполнителями является группа «The Platters». Элвис пел «Only You» на некоторых концертах, но не существует ни одной аудио- или видеозаписи этой композиции в его исполнении.»
 
Опции темы

  #1
Старый 20.06.2018, 05:10
sergych
Координатор
Досье
 
Аватар для sergych
Релиз Celine Dion - Encore Un Soir


2016 - Celine Dion - Encore Un Soir




Исполнитель/Artist: Celine Dion
Альбом/Album: Encore Un Soir
Год/Year: 2016
Жанр/Genre: pop
Страна/Country: Австрия
Рекорд-лейбл/Record label: Sony Music
Номер в каталоге/Catalogue #: 88985337172
Формат/Format: Free Lossless Audio Codec (*.flac)
Качество/Quality: Lossless
Тип рипа/RIP Type: image+.cue
Продолжительность/Length: 00:45:14
Источник/Source: Собственный рип
Размер/Size: 333.7 MB

Сканы в комплекте

Треклист

01. Plus Qu'ailleurs [0:03:38.54]
02. L'etoile [0:03:14.30]
03. Ma Famille [0:03:50.72]
04. Encore Un Soir [0:04:23.33]
05. Je Nous Veux [0:03:58.08]
06. Les Yeux Au Ciel [0:02:57.01]
07. Si C'etait A Refaire [0:03:52.33]
08. Ordinaire [0:04:44.14]
09. Tu Sauras [0:03:25.58]
10. Toutes Ces Choses [0:03:24.19]
11. Le Bonheur En Face [0:02:54.69]
12. A La Plus Haute Branche [0:04:50.04]
[свернуть]

youtube.com

[свернуть]

Исполнители/Performers

Céline Dion – choir and chorus, lead vocals
John Arnold – violin
Guy Bélanger – harmonica
Marc Bercovitz – direction
Thierry Blanchard – instrumentation, piano
Ludovic Carquet – bass, clavier
Flavien Compagnon, Giorgio Tuinfort – piano
Annemarie Hensens, Bram Faber, Yanna Pelser – viola
Jennifer Eriksson, Phillippe Dunnigan, Rebecca Ramsey – violin
Nathan East – bass
Humberto Gatica – choir and chorus
Eric Giausserand – trumpet
Christine Giguère, Élisabeth Dubé, Hinse Mutter, Jascha Bordon, Marije De Jong, Thérèse Ryan – cello
Kaven Girouard – acoustic guitar
Simon Hale – Fender Rhodes, piano
Paul Richard – percussion
Patrick Hampartzoumian – drums, percussion
Earl Harvin, Vinnie Colaiuta – drums
Michaël Joussein – trombone
Yves Labonté – basse
Luc Leroy – clavier, piano
Silvio Lisbonne – bass, clavier, drums, executive producer, fender rhodes, acoustic guitar, electric guitar, keyboard programming, percussion, piano
Yann Macé – clavier, drums, mixing, percussion
Therry Marie-Louise – bass, clavier
Francis Cabrel, Jacques Vénéruso, Vincent Martinez – guitar
Everton Nelson – leader
Martin Nessi – assistant, choir and chorus, percussion
Dean Parks – Dobro, acoustic guitar
Michael Thompson, Tim Pierce – acoustic guitar, electric guitar
Eddy Pradelles – acoustic guitar
Scott Price – arranger, clavier, piano
Pierre-Luc Rioux – guitar, acoustic guitar, electric guitar
Yannick Soccal – tenor saxophone
Tiborg - electric guitar, drums, keyboards, (guitar, bass, keyboards)
[свернуть]

EAC лог

Exact Audio Copy V1.3 from 2. September 2016

EAC extraction logfile from 18. June 2018, 21:18

Celine Dion / Encore Un Soir

Used drive : ATAPI iHAS124 D Adapter: 0 ID: 2

Read mode : Secure
Utilize accurate stream : Yes
Defeat audio cache : Yes
Make use of C2 pointers : No

Read offset correction : 6
Overread into Lead-In and Lead-Out : No
Fill up missing offset samples with silence : Yes
Delete leading and trailing silent blocks : No
Null samples used in CRC calculations : Yes
Used interface : Installed external ASPI interface

Used output format : User Defined Encoder
Selected bitrate : 1024 kBit/s
Quality : High
Add ID3 tag : No
Command line compressor : C:\Program Files (x86)\Exact Audio Copy\Flac\flac.exe
Additional command line options : -6 -V -T "ARTIST=%artist%" -T "TITLE=%title%" -T "ALBUM=%albumtitle%" -T "DATE=%year%" -T "TRACKNUMBER=%tracknr%" -T "GENRE=%genre%" -T "COMMENT=%comment%" -T "BAND=%albuminterpret%" -T "ALBUMARTIST=%albuminterpret%" -T "COMPOSER=%composer%" %haslyrics%--tag-from-file=LYRICS="%lyricsfile%"%haslyrics% -T "DISCNUMBER=%cdnumber%" -T "TOTALDISCS=%totalcds%" -T "TOTALTRACKS=%numtracks%" %hascover%--picture="%coverfile%"%hascover% %source% -o %dest%


TOC of the extracted CD

Track | Start | Length | Start sector | End sector
---------------------------------------------------------
1 | 0:00.00 | 3:38.54 | 0 | 16403
2 | 3:38.54 | 3:14.30 | 16404 | 30983
3 | 6:53.09 | 3:50.72 | 30984 | 48305
4 | 10:44.06 | 4:23.33 | 48306 | 68063
5 | 15:07.39 | 3:58.08 | 68064 | 85921
6 | 19:05.47 | 2:57.01 | 85922 | 99197
7 | 22:02.48 | 3:52.33 | 99198 | 116630
8 | 25:55.06 | 4:44.14 | 116631 | 137944
9 | 30:39.20 | 3:25.58 | 137945 | 153377
10 | 34:05.03 | 3:24.19 | 153378 | 168696
11 | 37:29.22 | 2:54.69 | 168697 | 181815
12 | 40:24.16 | 4:50.04 | 181816 | 203569


Range status and errors

Selected range

Filename C:\mm\Celine Dion\2016 - Encore un soir [88985337172]\Celine Dion - Encore Un Soir.wav

Peak level 100.0 %
Extraction speed 1.7 X
Range quality 100.0 %
Test CRC B67E039E
Copy CRC B67E039E
Copy OK

No errors occurred

End of status report

---- CUETools DB Plugin V2.1.6

[CTDB TOCID: _58RMSCgze099bhwI_cJPkJ9sL0-] found
Submit result: _58RMSCgze099bhwI_cJPkJ9sL0- has been confirmed
Track | CTDB Status
1 | (358/360) Accurately ripped
2 | (358/360) Accurately ripped
3 | (358/360) Accurately ripped
4 | (359/360) Accurately ripped
5 | (358/360) Accurately ripped
6 | (359/360) Accurately ripped
7 | (359/360) Accurately ripped
8 | (358/360) Accurately ripped
9 | (359/360) Accurately ripped
10 | (359/360) Accurately ripped
11 | (359/360) Accurately ripped
12 | (359/360) Accurately ripped
[свернуть]

Файл CUE

REM GENRE Pop
REM DATE 2016
REM DISCID 8E0A9A0C
REM COMMENT "ExactAudioCopy v1.3"
PERFORMER "Celine Dion"
TITLE "Encore Un Soir"
REM COMPOSER ""
FILE "Celine Dion - Encore Un Soir.flac" WAVE
TRACK 01 AUDIO
TITLE "Plus Qu'ailleurs"
PERFORMER "Celine Dion"
REM COMPOSER ""
FLAGS DCP
INDEX 01 00:00:00
TRACK 02 AUDIO
TITLE "L'etoile"
PERFORMER "Celine Dion"
REM COMPOSER ""
FLAGS DCP
INDEX 01 03:38:54
TRACK 03 AUDIO
TITLE "Ma Famille"
PERFORMER "Celine Dion"
REM COMPOSER ""
FLAGS DCP
INDEX 01 06:53:09
TRACK 04 AUDIO
TITLE "Encore Un Soir"
PERFORMER "Celine Dion"
REM COMPOSER ""
FLAGS DCP
INDEX 01 10:44:06
TRACK 05 AUDIO
TITLE "Je Nous Veux"
PERFORMER "Celine Dion"
REM COMPOSER ""
FLAGS DCP
INDEX 01 15:07:39
TRACK 06 AUDIO
TITLE "Les Yeux Au Ciel"
PERFORMER "Celine Dion"
REM COMPOSER ""
FLAGS DCP
INDEX 01 19:05:47
TRACK 07 AUDIO
TITLE "Si C'etait A Refaire"
PERFORMER "Celine Dion"
REM COMPOSER ""
FLAGS DCP
INDEX 01 22:02:48
TRACK 08 AUDIO
TITLE "Ordinaire"
PERFORMER "Celine Dion"
REM COMPOSER ""
FLAGS DCP
INDEX 01 25:55:06
TRACK 09 AUDIO
TITLE "Tu Sauras"
PERFORMER "Celine Dion"
REM COMPOSER ""
FLAGS DCP
INDEX 01 30:39:20
TRACK 10 AUDIO
TITLE "Toutes Ces Choses"
PERFORMER "Celine Dion"
REM COMPOSER ""
FLAGS DCP
INDEX 01 34:05:03
TRACK 11 AUDIO
TITLE "Le Bonheur En Face"
PERFORMER "Celine Dion"
REM COMPOSER ""
FLAGS DCP
INDEX 01 37:29:22
TRACK 12 AUDIO
TITLE "A La Plus Haute Branche"
PERFORMER "Celine Dion"
REM COMPOSER ""
FLAGS DCP
INDEX 01 40:24:16
[свернуть]

Лог проверки качества

AUDIOCHECKER v2.0 beta (build 457) - by Dester - [Ссылки могут видеть только зарегистрированные и активированные пользователи.]
[Only registered and activated users can see links.]
~~~~~~~~~~~~~~~~~~~~~~~~~~~~~~~~~~
-=== НЕ РЕДАКТИРУЙТЕ ЭТОТ ФАЙЛ! ===-

Путь: ...\2016 - Encore un soir [88985337172]

1 -=- Celine Dion - Encore Un Soir.flac -=- CDDA (100%)

189759092
[свернуть]

Спектр частот

[свернуть]

Скачать Celine Dion - Encore Un Soir

[Ссылки могут видеть только зарегистрированные и активированные пользователи.]
[Only registered and activated users can see links.]

password: sergych
[свернуть]

Контрольная сумма (хеш-сумма) архива

MD5: 02ec3b22bc84819fb4efbc3232eb2414
[свернуть]
My opinion of release: 10/10
__________________
TAIFUN.Wings of Soul

Вверх
3 пользователя(ей) сказали cпасибо:
johnsilver (20.06.2018), Lighting1981 (20.06.2018), swint68 (20.06.2018)
Похожие темы
Тема Автор Раздел Ответов Последнее сообщение
Live Celine Dion - A L'Olympia sergych Зарубежная Поп-Музыка 0 10.01.2017 23:06
Альбом Celine Dion - Celine Dion sergych Зарубежная Поп-Музыка 0 09.02.2015 21:24
Альбом Celine Dion - D'eux sergych Зарубежная Поп-Музыка 0 25.01.2015 17:01
Альбом Celine Dion - A New Day Has Come sergych Зарубежная Поп-Музыка 0 27.12.2014 18:40


Метки
2016 , celine dion , encore un soir , pop

Опции темы

Ваши права в разделе
Вы не можете создавать новые темы
Вы не можете отвечать в темах
Вы не можете прикреплять вложения
Вы не можете редактировать свои сообщения

Быстрый переход



Текущее время: 02:34. Часовой пояс GMT +3.
Powered by vBulletin® Version 3.8.10
Copyright ©2000 - 2019, vBulletin Solutions, Inc. Перевод: zCarot
© 2008 - 2019 Taifun With Song
Яндекс.Метрика