TAIFUN With Song
Навигация
Вернуться   TAIFUN With Song > Music (обменник) > Rock > Soft Rock
Расширенный поиск
Soft Rock Это музыкальный стиль, который использует технику рок-н-ролла чтобы достичь более мягкого, более приятного для слуха звука, чтобы такую музыку было приятно слушать, например, на работе или за рулем. Soft rock всегда поется с высокими голосами, если певец мужчина, то он будет петь фальцетом, слова soft rock’а всегда сфокусированы на приятные темы, такие, как любовь, ежедневная жизнь и дружба.

А знаете ли Вы, что...
Какое музыкальное произведение планируется закончить исполнять к 2640 году?
«Среди произведений Джона Кейджа есть пьеса «Organ²/ASLSP (As SLow aS Possible)». Её типичное исполнение на фортепиано занимает от 20 до 70 минут, однако пояснение в скобках даёт указание играть пьесу настолько медленно, насколько это возможно. В связи с этим в 2001 году в церкви немецкого города Хальберштадт началось уникальное исполнение этой пьесы на органе, которое планируется завершить в 2640 году (через 639 лет после начала), а смена аккорда проходит примерно раз в год.»
 
Опции темы

  #1
Старый 27.11.2016, 10:49
sergych
Координатор
Досье
 
Аватар для sergych
Релиз Billy Joel - The Stranger


1977(1998) - Billy Joel - The Stranger




Исполнитель/Artist: Billy Joel
Альбом/Album: The Stranger
Год/Year: 1977
Ремастеринг/Remaster: 1998
Жанр/Genre: Soft Rock, Pop Rock
Страна/Country: Австрия
Рекорд-лейбл/Record label: Columbia / Sony Music
Номер в каталоге/Catalogue #: 491184 2
Формат/Format: Free Lossless Audio Codec (*.flac)
Качество/Quality: Lossless
Тип рипа/RIP Type: image+.cue
Продолжительность/Length: 00:42:34
Источник/Source: Собственный рип
Размер/Size: 304.2 MB

Сканы в комплекте

Треклист

01. Movin’ Out (Anthony’s Song) [0:03:30.35]
02. The Stranger [0:05:10.48]
03. Just the Way You Are [0:04:50.57]
04. Scenes From an Italian Restaurant [0:07:37.08]
05. Vienna [0:03:34.35]
06. Only the Good Die Young [0:03:55.50]
07. She’s Always a Woman [0:03:21.33]
08. Get It Right the First Time [0:03:57.14]
09. Everybody Has a Dream [0:06:36.55]
[свернуть]

youtube.com

[свернуть]

Исполнители/Performers

Billy Joel – vocals, acoustic piano, keyboards, synthesizers, Fender Rhodes
Doug Stegmeyer – bass guitar
Liberty DeVitto – drums
Richie Cannata – tenor and soprano saxophones, clarinet, flute, organ, tuba
Steve Khan – six and twelve string electric guitars, acoustic rhythm guitar, high string guitar
Hiram Bullock – electric guitar
Patrick Williams – orchestration
Ralph MacDonald – percussion on "The Stranger," "Just the Way You Are," "Get It Right The First Time" and "Everybody Has A Dream"
Hugh McCracken – acoustic guitar on "Just the Way You Are," "Scenes from an Italian Restaurant," "She's Always A Woman," "Get It Right The First Time" and "Everybody Has A Dream"
Steve Burgh – acoustic guitar on "Just the Way You Are" and "She's Always A Woman"; electric guitar on "Scenes from an Italian Restaurant"
Phil Woods – alto saxophone on "Just the Way You Are"
Dominic Cortese – accordion on "Scenes from an Italian Restaurant" and "Vienna"
Richard Tee – organ on "Everybody Has A Dream"
Gwen Guthrie, Lani Groves, Patti Austin, Phoebe Snow – background vocals on "Everybody Has A Dream"
[свернуть]

EAC лог

Exact Audio Copy V1.1 from 23. June 2015

EAC extraction logfile from 17. October 2016, 13:48

Billy Joel / The Stranger

Used drive : Optiarc DVD RW AD-7260S Adapter: 1 ID: 0

Read mode : Secure
Utilize accurate stream : Yes
Defeat audio cache : Yes
Make use of C2 pointers : No

Read offset correction : 48
Overread into Lead-In and Lead-Out : No
Fill up missing offset samples with silence : Yes
Delete leading and trailing silent blocks : No
Null samples used in CRC calculations : Yes
Used interface : Native Win32 interface for Win NT & 2000

Used output format : User Defined Encoder
Selected bitrate : 896 kBit/s
Quality : High
Add ID3 tag : No
Command line compressor : C:\MMProgram\Exact Audio Copy\FLAC\FLAC.EXE
Additional command line options : -6 -V -T "ARTIST=%artist%" -T "TITLE=%title%" -T "ALBUM=%albumtitle%" -T "DATE=%year%" -T "TRACKNUMBER=%tracknr%" -T "GENRE=%genre%" -T "COMMENT=%comment%" -T "BAND=%albuminterpret%" -T "ALBUMARTIST=%albuminterpret%" -T "COMPOSER=%composer%" %haslyrics%--tag-from-file=LYRICS="%lyricsfile%"%haslyrics% -T "DISCNUMBER=%cdnumber%" -T "TOTALDISCS=%totalcds%" -T "TOTALTRACKS=%numtracks%" %hascover%--picture="%coverfile%"%hascover% %source% -o %dest%


TOC of the extracted CD

Track | Start | Length | Start sector | End sector
---------------------------------------------------------
1 | 0:00.00 | 3:30.35 | 0 | 15784
2 | 3:30.35 | 5:10.48 | 15785 | 39082
3 | 8:41.08 | 4:50.57 | 39083 | 60889
4 | 13:31.65 | 7:37.08 | 60890 | 95172
5 | 21:08.73 | 3:34.35 | 95173 | 111257
6 | 24:43.33 | 3:55.50 | 111258 | 128932
7 | 28:39.08 | 3:21.33 | 128933 | 144040
8 | 32:00.41 | 3:57.14 | 144041 | 161829
9 | 35:57.55 | 6:36.55 | 161830 | 191584
10 | 45:06.35 | 24:47.30 | 202985 | 314539


Range status and errors

Selected range

Filename F:\Music\Billy Joel\1977(1998) - The Stranger [491184 2]\Billy Joel - The Stranger.wav

Peak level 99.8 %
Extraction speed 4.1 X
Range quality 100.0 %
Test CRC C5063EE0
Copy CRC C5063EE0
Copy OK

No errors occurred


AccurateRip summary

Track 1 accurately ripped (confidence 54) [AE8F2CE1] (AR v2)
Track 2 accurately ripped (confidence 54) [BF9C49E7] (AR v2)
Track 3 accurately ripped (confidence 54) [34A76115] (AR v2)
Track 4 accurately ripped (confidence 54) [E2E94D49] (AR v2)
Track 5 accurately ripped (confidence 54) [AD6EF523] (AR v2)
Track 6 accurately ripped (confidence 54) [A17D7B8C] (AR v2)
Track 7 accurately ripped (confidence 53) [C420AEC5] (AR v2)
Track 8 accurately ripped (confidence 54) [ED726237] (AR v2)
Track 9 accurately ripped (confidence 54) [39B0CCCC] (AR v2)

All tracks accurately ripped

End of status report

---- CUETools DB Plugin V2.1.6

[CTDB TOCID: M3s4T77hFeBnqh2roGyEOpTFnXQ-] found
Submit result: M3s4T77hFeBnqh2roGyEOpTFnXQ- has been confirmed
Track | CTDB Status
1 | (268/276) Accurately ripped, or (1/276) differs in 20172 samples @00:05:03-00:05:20,03:28:55-03:28:56
2 | (266/276) Accurately ripped
3 | (269/276) Accurately ripped, or (1/276) differs in 949 samples @04:49:39-04:49:41
4 | (266/276) Accurately ripped, or (1/276) differs in 535 samples @04:31:58,07:35:32-07:35:33
5 | (269/276) Accurately ripped
6 | (268/276) Accurately ripped
7 | (266/276) Accurately ripped
8 | (267/276) Accurately ripped
9 | (272/276) Accurately ripped
[свернуть]

Файл CUE

REM GENRE Pop
REM DATE 1977
REM DISCID 7410610A
REM COMMENT "ExactAudioCopy v1.1"
PERFORMER "Billy Joel"
TITLE "The Stranger"
FILE "Billy Joel - The Stranger.flac" WAVE
TRACK 01 AUDIO
TITLE "Movin’ Out (Anthony’s Song)"
PERFORMER "Billy Joel"
INDEX 01 00:00:00
TRACK 02 AUDIO
TITLE "The Stranger"
PERFORMER "Billy Joel"
INDEX 00 03:28:55
INDEX 01 03:30:35
TRACK 03 AUDIO
TITLE "Just the Way You Are"
PERFORMER "Billy Joel"
INDEX 00 08:38:25
INDEX 01 08:41:08
TRACK 04 AUDIO
TITLE "Scenes From an Italian Restaurant"
PERFORMER "Billy Joel"
INDEX 00 13:30:48
INDEX 01 13:31:65
TRACK 05 AUDIO
TITLE "Vienna"
PERFORMER "Billy Joel"
INDEX 00 21:07:23
INDEX 01 21:08:73
TRACK 06 AUDIO
TITLE "Only the Good Die Young"
PERFORMER "Billy Joel"
INDEX 00 24:42:18
INDEX 01 24:43:33
TRACK 07 AUDIO
TITLE "She’s Always a Woman"
PERFORMER "Billy Joel"
INDEX 00 28:36:58
INDEX 01 28:39:08
TRACK 08 AUDIO
TITLE "Get It Right the First Time"
PERFORMER "Billy Joel"
INDEX 01 32:00:41
TRACK 09 AUDIO
TITLE "Everybody Has a Dream"
PERFORMER "Billy Joel"
INDEX 00 35:54:28
INDEX 01 35:57:55
[свернуть]

Лог проверки качества

AUDIOCHECKER v2.0 beta (build 457) - by Dester -
~~~~~~~~~~~~~~~~~~~~~~~~~~~~~~~~~~
-=== НЕ РЕДАКТИРУЙТЕ ЭТОТ ФАЙЛ! ===-

Путь: ...\1977(1998) - The Stranger [491184 2]

1 -=- Billy Joel - The Stranger.flac -=- CDDA (100%)

187181524
[свернуть]

Спектр частот

[свернуть]

Скачать Billy Joel - The Stranger



password: sergych
[свернуть]

Контрольная сумма (хеш-сумма) архива

MD5: 561b76fd135f725dd13dec9c1df3d442
[свернуть]
My opinion of release: 10/10
__________________
TAIFUN.Wings of Soul

Вверх
Пользователь сказал cпасибо:
swint68 (27.11.2016)
Похожие темы
Тема Автор Раздел Ответов Последнее сообщение
Альбом Billy Joel - River Of Dreams sergych Rock 0 25.10.2015 17:04
Сборник Billy Joel - Greatest Hits. Volume I & II sergych Pop Rock 0 28.07.2014 22:10
Альбом Billy McLaughlin - Acoustic Original (The Best Of Billy McLaughlin) fly123 New age 0 28.09.2011 17:46
Релиз Joel Mull - Sensory PUPOKIN Techno 0 12.02.2011 10:15
Релиз Joel Plaskett - Three PUPOKIN Indie Rock 0 23.08.2009 10:11


Метки
1977 , billy joel , pop rock , soft rock , the stranger

Опции темы

Ваши права в разделе
Вы не можете создавать новые темы
Вы не можете отвечать в темах
Вы не можете прикреплять вложения
Вы не можете редактировать свои сообщения

Быстрый переход



Текущее время: 04:36. Часовой пояс GMT +3.
Powered by vBulletin® Version 3.8.10
Copyright ©2000 - 2018, vBulletin Solutions, Inc. Перевод: zCarot
© 2008 - 2018 Taifun With Song
Яндекс.Метрика