TAIFUN With Song
Навигация
Experimental Rock Как следует из названия, данный стиль является диаметрально противоположным "стандартной" музыке с ее структурой "запев-привев". Так как вся суть заключается в новаторстве и отходе от стереотипов, в Experimental Rock не существует никаких твердых правил, но его отличительными свойствами все же являются импровизационность, влияния авангарда, странноватые аранжировки, туманные тексты (если они вообще присутствуют), непривычные композиционные построения и ритмы, а также подчеркнутое отвержение коммерческих перспектив.

А знаете ли Вы, что...
Какой русский музыкальный инструмент мы называем цыганским?
«Семиструнную гитару во всём мире называют русской гитарой, а у нас также распространено название цыганская гитара.»
 
Опции темы

  #1
Старый 06.10.2013, 13:39
sergych
Координатор
Досье
 
Аватар для sergych
Релиз Tom Waits - Big Time


1988(2009) - Tom Waits - Big Time




Исполнитель/Artist: Tom Waits
Альбом/Album: Big Time
Год/Year: 1988
Ремастеринг/Remaster: 2009
Жанр/Genre: Rock, experimental rock
Страна/Country: Россия
Рекорд-лейбл/Record label: Island Records / Юниверсал Мьюзик
Номер в каталоге/Catalogue #: 004228424709
Формат/Format: Free Lossless Audio Codec (*.flac)
Качество/Quality: Lossless
Тип рипа/RIP Type: image+.cue
Продолжительность/Length: 01:07:40
Источник/Source: Собственный рип
Размер/Size: 401 MB

Сканы в комплекте

Треклист

01 - 16 Shells From A 30.6
02 - Red Shoes
03 - Underground
04 - Cold Cold Ground
05 - Straight To The Top
06 - Yesterday Is Here
07 - Way Down In The Hole
08 - Falling Down
09 - Strange Weather
10 - Big Black Mariah
11 - Rain Dogs
12 - Train Song
13 - Johnsburg, Illinois
14 - Ruby's Arms
15 - Telephone Call From Istanbul
16 - Clap Hands
17 - Gun Street Girl
18 - Time
[свернуть]

youtube.com

[свернуть]

Исполнители/Performers

Tom Waits - lead vocals, piano, guitar (on "Cold Cold Ground" & "Strange Weather"), organ (on "Falling Down"), percussion (on "16 Shells from a 30.6")
Marc Ribot - lead guitar, banjo, trumpet
Fred Tackett - guitar (on "Falling Down")
Greg Cohen - electric bass, basstarda, alto horn
Larry Taylor - double bass (on "Falling Down")
Ralph Carney - saxophone, clarinets, baritone horn
Willy Schwarz - accordion, hammond organ, sitar, conga
Michael Blair - drums, percussion, bongos, brake drum
Richie Hayward - drums (on "Falling Down")
[свернуть]

EAC лог

Exact Audio Copy V1.0 beta 3 from 29. August 2011

EAC extraction logfile from 6. October 2013, 13:27

Tom Waits / Big Time

Used drive : ATAPI iHAS124 D Adapter: 0 ID: 2

Read mode : Secure
Utilize accurate stream : Yes
Defeat audio cache : Yes
Make use of C2 pointers : No

Read offset correction : 6
Overread into Lead-In and Lead-Out : No
Fill up missing offset samples with silence : Yes
Delete leading and trailing silent blocks : No
Null samples used in CRC calculations : Yes
Used interface : Installed external ASPI interface

Used output format : User Defined Encoder
Selected bitrate : 1024 kBit/s
Quality : High
Add ID3 tag : No
Command line compressor : C:\Program Files (x86)\Exact Audio Copy\Flac\flac.exe
Additional command line options : -6 -V -T "ARTIST=%artist%" -T "TITLE=%title%" -T "ALBUM=%albumtitle%" -T "DATE=%year%" -T "TRACKNUMBER=%tracknr%" -T "GENRE=%genre%" -T "COMMENT=%comment%" -T "BAND=%albuminterpret%" -T "COMPOSER=%composer%" %haslyrics%--tag-from-file=LYRICS="%lyricsfile%"%haslyrics% -T "DISCNUMBER=%cdnumber%" -T "TOTALDISCS=%totalcds%" -T "TOTALTRACKS=%numtracks%" %hascover%--picture="%coverfile%"%hascover% %source% -o %dest%


TOC of the extracted CD

Track | Start | Length | Start sector | End sector
---------------------------------------------------------
1 | 0:00.33 | 4:18.00 | 33 | 19382
2 | 4:18.33 | 4:19.60 | 19383 | 38867
3 | 8:38.18 | 2:34.15 | 38868 | 50432
4 | 11:12.33 | 3:27.00 | 50433 | 65957
5 | 14:39.33 | 2:48.50 | 65958 | 78607
6 | 17:28.08 | 2:40.70 | 78608 | 90677
7 | 20:09.03 | 4:43.55 | 90678 | 111957
8 | 24:52.58 | 4:15.62 | 111958 | 131144
9 | 29:08.45 | 3:35.58 | 131145 | 147327
10 | 32:44.28 | 2:59.10 | 147328 | 160762
11 | 35:43.38 | 3:36.32 | 160763 | 176994
12 | 39:19.70 | 4:29.68 | 176995 | 197237
13 | 43:49.63 | 1:29.25 | 197238 | 203937
14 | 45:19.13 | 4:54.40 | 203938 | 226027
15 | 50:13.53 | 4:17.22 | 226028 | 245324
16 | 54:31.00 | 4:57.18 | 245325 | 267617
17 | 59:28.18 | 4:01.67 | 267618 | 285759
18 | 63:30.10 | 4:11.05 | 285760 | 304589


Range status and errors

Selected range

Filename C:\mm\Tom Waits\1988(2009) - Big Time\Tom Waits - Big Time.wav

Peak level 97.7 %
Extraction speed 9.3 X
Range quality 100.0 %
Test CRC BC62335B
Copy CRC BC62335B
Copy OK

No errors occurred


AccurateRip summary

Track 1 cannot be verified as accurate (confidence 59) [971FFF84], AccurateRip returned [84481737] (AR v2)
Track 2 cannot be verified as accurate (confidence 61) [E41B3C92], AccurateRip returned [57BBAD59] (AR v2)
Track 3 cannot be verified as accurate (confidence 61) [B8AEE37A], AccurateRip returned [D40C93D9] (AR v2)
Track 4 cannot be verified as accurate (confidence 61) [8EF4A906], AccurateRip returned [56CB8A0F] (AR v2)
Track 5 cannot be verified as accurate (confidence 61) [C55565DC], AccurateRip returned [F1DBA1FC] (AR v2)
Track 6 cannot be verified as accurate (confidence 61) [675A45C7], AccurateRip returned [FE21355C] (AR v2)
Track 7 cannot be verified as accurate (confidence 61) [F665E6F7], AccurateRip returned [724DC416] (AR v2)
Track 8 cannot be verified as accurate (confidence 61) [BC7D27E1], AccurateRip returned [E062C559] (AR v2)
Track 9 cannot be verified as accurate (confidence 61) [81EC8888], AccurateRip returned [8CD51876] (AR v2)
Track 10 cannot be verified as accurate (confidence 61) [56B79082], AccurateRip returned [B5503103] (AR v2)
Track 11 cannot be verified as accurate (confidence 61) [A6CC8D0C], AccurateRip returned [64E98D46] (AR v2)
Track 12 cannot be verified as accurate (confidence 60) [05F2D2AA], AccurateRip returned [9AC781F9] (AR v2)
Track 13 cannot be verified as accurate (confidence 60) [7C832B3A], AccurateRip returned [9FDE58B0] (AR v2)
Track 14 cannot be verified as accurate (confidence 61) [82D0A1DD], AccurateRip returned [1CE4B701] (AR v2)
Track 15 cannot be verified as accurate (confidence 60) [E2D9941F], AccurateRip returned [DA9FA405] (AR v2)
Track 16 cannot be verified as accurate (confidence 61) [66D4332C], AccurateRip returned [AC645006] (AR v2)
Track 17 cannot be verified as accurate (confidence 60) [D5B3CECC], AccurateRip returned [FBDB5249] (AR v2)
Track 18 cannot be verified as accurate (confidence 61) [102ED1DB], AccurateRip returned [4B278EE8] (AR v2)

No tracks could be verified as accurate
You may have a different pressing from the one(s) in the database

End of status report
[свернуть]

Файл CUE

REM GENRE Rock
REM DATE 1988
REM DISCID D80FDD12
REM COMMENT "ExactAudioCopy v1.0b3"
PERFORMER "Tom Waits"
TITLE "Big Time"
FILE "Tom Waits - Big Time.flac" WAVE
TRACK 01 AUDIO
TITLE "16 Shells From A Thirty-Ought-Six"
PERFORMER "Tom Waits"
INDEX 00 00:00:00
INDEX 01 00:00:33
TRACK 02 AUDIO
TITLE "Red Shoes"
PERFORMER "Tom Waits"
INDEX 01 04:18:33
TRACK 03 AUDIO
TITLE "Underground"
PERFORMER "Tom Waits"
INDEX 00 08:36:58
INDEX 01 08:38:18
TRACK 04 AUDIO
TITLE "Cold Cold Ground"
PERFORMER "Tom Waits"
INDEX 01 11:12:33
TRACK 05 AUDIO
TITLE "Straight To The Top"
PERFORMER "Tom Waits"
INDEX 00 14:38:33
INDEX 01 14:39:33
TRACK 06 AUDIO
TITLE "Yesterday Is Here"
PERFORMER "Tom Waits"
INDEX 00 17:27:58
INDEX 01 17:28:08
TRACK 07 AUDIO
TITLE "Way Down In The Hole"
PERFORMER "Tom Waits"
INDEX 01 20:09:03
TRACK 08 AUDIO
TITLE "Falling Down"
PERFORMER "Tom Waits"
INDEX 00 24:52:20
INDEX 01 24:52:58
TRACK 09 AUDIO
TITLE "Strange Weather"
PERFORMER "Tom Waits"
INDEX 00 29:06:70
INDEX 01 29:08:45
TRACK 10 AUDIO
TITLE "Big Black Mariah"
PERFORMER "Tom Waits"
INDEX 00 32:43:65
INDEX 01 32:44:28
TRACK 11 AUDIO
TITLE "Rain Dogs"
PERFORMER "Tom Waits"
INDEX 00 35:43:03
INDEX 01 35:43:38
TRACK 12 AUDIO
TITLE "Train Song"
PERFORMER "Tom Waits"
INDEX 01 39:19:70
TRACK 13 AUDIO
TITLE "Johnsburg, Illinois"
PERFORMER "Tom Waits"
INDEX 00 43:49:30
INDEX 01 43:49:63
TRACK 14 AUDIO
TITLE "Ruby's Arms"
PERFORMER "Tom Waits"
INDEX 01 45:19:13
TRACK 15 AUDIO
TITLE "Telephone Call From Istanbul"
PERFORMER "Tom Waits"
INDEX 00 50:12:73
INDEX 01 50:13:53
TRACK 16 AUDIO
TITLE "Clap Hands"
PERFORMER "Tom Waits"
INDEX 01 54:31:00
TRACK 17 AUDIO
TITLE "Gun Street Girl"
PERFORMER "Tom Waits"
INDEX 00 59:27:53
INDEX 01 59:28:18
TRACK 18 AUDIO
TITLE "Time"
PERFORMER "Tom Waits"
INDEX 00 63:29:57
INDEX 01 63:30:10
[свернуть]

Лог проверки качества

AUDIOCHECKER v2.0 beta (build 457) - by Dester -
~~~~~~~~~~~~~~~~~~~~~~~~~~~~~~~~~~
-=== НЕ РЕДАКТИРУЙТЕ ЭТОТ ФАЙЛ! ===-

Путь: ...\1988(2009) - Big Time

1 -=- Tom Waits - Big Time.flac -=- CDDA (100%)

230482628
[свернуть]

Скачать Tom Waits - Big Time



password: sergych
[свернуть]
My opinion of release: 9/10
__________________
TAIFUN.Wings of Soul

Вверх
Пользователь сказал cпасибо:
Chert (19.08.2014)
Похожие темы
Тема Автор Раздел Ответов Последнее сообщение
Сборник Cyndi Lauper - Time After Time. The Best Of Cyndi Lauper sergych Soft Rock 1 24.01.2016 11:44
Релиз Whiteboy James & The Blues Express - Last Time Was The Last Time PUPOKIN Jazz и Blues 0 15.08.2010 13:34
Сборник Tom Waits & Friends - The Ghost Of Tom Waits sergych Jazz и Blues 0 23.01.2009 23:19


Метки
1988 , big time , experimental rock , rock , tom waits

Опции темы

Ваши права в разделе
Вы не можете создавать новые темы
Вы не можете отвечать в темах
Вы не можете прикреплять вложения
Вы не можете редактировать свои сообщения

Быстрый переход



Текущее время: 02:45. Часовой пояс GMT +3.
Powered by vBulletin® Version 3.8.10
Copyright ©2000 - 2018, vBulletin Solutions, Inc. Перевод: zCarot
© 2008 - 2018 Taifun With Song
Яндекс.Метрика