TAIFUN With Song
Навигация
R&B Ссылки на музыку в этом стиле

А знаете ли Вы, что...
Кто начал писать музыку в 5 лет?
«Вольфганг Амадей Моцарт начал сочинять музыку в 5 лет.»
 
Опции темы

  #1
Старый 12.04.2015, 12:13
sergych
Координатор
Досье
 
Аватар для sergych
Релиз Des'ree - Mystic Mixes


1999 - Des'ree - Mystic Mixes




Исполнитель/Artist: Des'ree
Альбом/Album: Mystic Mixes
Год/Year: 1999
Жанр/Genre: R&B, soul, pop
Страна/Country: Япония
Рекорд-лейбл/Record label: Epic Records
Номер в каталоге/Catalogue #: ESCA 8037
Формат/Format: Free Lossless Audio Codec (*.flac)
Качество/Quality: Lossless
Тип рипа/RIP Type: image+.cue
Продолжительность/Length: 01:07:53
Источник/Source: Собственный рип
Размер/Size: 476 MB

Сканы в комплекте

Треклист

01. You Gotta Be (1999 Mix) [0:04:09.50]
02. Life (Cosmack Mix) [0:04:25.52]
03. I Ain't Movin' (C&J Club Mix) [0:04:10.10]
04. Mind Adventures (The Master Mix) [0:06:21.25]
05. Feel So High (The Elevation Mix) [0:05:27.63]
06. You Gotta Be (Blacksmith mix) [0:05:44.12]
07. What's Your Sign (Saturn Return Mix) [0:07:58.55]
08. Living In The City (Meme's Extended Club Mix) [0:07:49.08]
09. I Ain't Movin' (Femi Fem Basic Mixx) [0:04:41.70]
10. You Gotta Be (Frankie Foncett Mix) [0:05:18.67]
11. Feel So High (The Family Stand Remix) [0:03:57.05]
12. Life (Cosmack Extended Mix) [0:07:47.70]
[свернуть]

youtube.com

[свернуть]

EAC лог

Exact Audio Copy V1.0 beta 3 from 29. August 2011

EAC extraction logfile from 12. April 2015, 12:54

Des'ree / Mystic Mixes

Used drive : ATAPI iHAS124 D Adapter: 0 ID: 2

Read mode : Secure
Utilize accurate stream : Yes
Defeat audio cache : Yes
Make use of C2 pointers : No

Read offset correction : 6
Overread into Lead-In and Lead-Out : No
Fill up missing offset samples with silence : Yes
Delete leading and trailing silent blocks : No
Null samples used in CRC calculations : Yes
Used interface : Installed external ASPI interface

Used output format : User Defined Encoder
Selected bitrate : 1024 kBit/s
Quality : High
Add ID3 tag : No
Command line compressor : C:\Program Files (x86)\Exact Audio Copy\Flac\flac.exe
Additional command line options : -6 -V -T "ARTIST=%artist%" -T "TITLE=%title%" -T "ALBUM=%albumtitle%" -T "DATE=%year%" -T "TRACKNUMBER=%tracknr%" -T "GENRE=%genre%" -T "COMMENT=%comment%" -T "BAND=%albuminterpret%" -T "COMPOSER=%composer%" %haslyrics%--tag-from-file=LYRICS="%lyricsfile%"%haslyrics% -T "DISCNUMBER=%cdnumber%" -T "TOTALDISCS=%totalcds%" -T "TOTALTRACKS=%numtracks%" %hascover%--picture="%coverfile%"%hascover% %source% -o %dest%


TOC of the extracted CD

Track | Start | Length | Start sector | End sector
---------------------------------------------------------
1 | 0:00.00 | 4:09.50 | 0 | 18724
2 | 4:09.50 | 4:25.52 | 18725 | 38651
3 | 8:35.27 | 4:10.10 | 38652 | 57411
4 | 12:45.37 | 6:21.25 | 57412 | 86011
5 | 19:06.62 | 5:27.63 | 86012 | 110599
6 | 24:34.50 | 5:44.12 | 110600 | 136411
7 | 30:18.62 | 7:58.55 | 136412 | 172316
8 | 38:17.42 | 7:49.08 | 172317 | 207499
9 | 46:06.50 | 4:41.70 | 207500 | 228644
10 | 50:48.45 | 5:18.67 | 228645 | 252561
11 | 56:07.37 | 3:57.05 | 252562 | 270341
12 | 60:04.42 | 7:47.70 | 270342 | 305436


Range status and errors

Selected range

Filename C:\mm\Des'ree\1999 - Mystic Mixes [ESCA 8037]\Des'ree - Mystic Mixes.wav

Peak level 100.0 %
Extraction speed 10.3 X
Range quality 100.0 %
Test CRC 12D86785
Copy CRC 12D86785
Copy OK

No errors occurred


AccurateRip summary

Track 1 accurately ripped (confidence 2) [75364F9A] (AR v1)
Track 2 accurately ripped (confidence 2) [85D19492] (AR v1)
Track 3 accurately ripped (confidence 2) [6F7A0C2F] (AR v1)
Track 4 accurately ripped (confidence 2) [5DFF21AC] (AR v1)
Track 5 accurately ripped (confidence 2) [2AB302E9] (AR v1)
Track 6 accurately ripped (confidence 2) [BB2E14AB] (AR v1)
Track 7 accurately ripped (confidence 2) [8E332974] (AR v1)
Track 8 accurately ripped (confidence 2) [123CC718] (AR v1)
Track 9 accurately ripped (confidence 2) [6D48C859] (AR v1)
Track 10 accurately ripped (confidence 2) [9396EDB2] (AR v1)
Track 11 accurately ripped (confidence 2) [D908B6AB] (AR v1)
Track 12 accurately ripped (confidence 2) [F3A2E123] (AR v1)

All tracks accurately ripped

End of status report
[свернуть]

Файл CUE

REM GENRE R&B
REM DATE 1999
REM DISCID AF0FE80C
REM COMMENT "ExactAudioCopy v1.0b3"
PERFORMER "Des'ree"
TITLE "Mystic Mixes"
FILE "Des'ree - Mystic Mixes.flac" WAVE
TRACK 01 AUDIO
TITLE "You Gotta Be (1999 Mix)"
PERFORMER "Des'ree"
INDEX 01 00:00:00
TRACK 02 AUDIO
TITLE "Life (Cosmack Mix)"
PERFORMER "Des'ree"
INDEX 01 04:09:50
TRACK 03 AUDIO
TITLE "I Ain't Movin' (C&J Club Mix)"
PERFORMER "Des'ree"
INDEX 01 08:35:27
TRACK 04 AUDIO
TITLE "Mind Adventures (The Master Mix)"
PERFORMER "Des'ree"
INDEX 01 12:45:37
TRACK 05 AUDIO
TITLE "Feel So High (The Elevation Mix)"
PERFORMER "Des'ree"
INDEX 01 19:06:62
TRACK 06 AUDIO
TITLE "You Gotta Be (Blacksmith mix)"
PERFORMER "Des'ree"
INDEX 01 24:34:50
TRACK 07 AUDIO
TITLE "What's Your Sign (Saturn Return Mix)"
PERFORMER "Des'ree"
INDEX 01 30:18:62
TRACK 08 AUDIO
TITLE "Living In The City (Meme's Extended Club Mix)"
PERFORMER "Des'ree"
INDEX 01 38:17:42
TRACK 09 AUDIO
TITLE "I Ain't Movin' (Femi Fem Basic Mixx)"
PERFORMER "Des'ree"
INDEX 01 46:06:50
TRACK 10 AUDIO
TITLE "You Gotta Be (Frankie Foncett Mix)"
PERFORMER "Des'ree"
INDEX 01 50:48:45
TRACK 11 AUDIO
TITLE "Feel So High (The Family Stand Remix)"
PERFORMER "Des'ree"
INDEX 01 56:07:37
TRACK 12 AUDIO
TITLE "Life (Cosmack Extended Mix)"
PERFORMER "Des'ree"
INDEX 01 60:04:42
[свернуть]

Лог проверки качества

AUDIOCHECKER v2.0 beta (build 457) - by Dester -
~~~~~~~~~~~~~~~~~~~~~~~~~~~~~~~~~~
-=== НЕ РЕДАКТИРУЙТЕ ЭТОТ ФАЙЛ! ===-

Путь: ...\1999 - Mystic Mixes [ESCA 8037]

1 -=- Des'ree - Mystic Mixes.flac -=- CDDA (100%)

256920724
[свернуть]

Спектр частот

[свернуть]

Скачать Des'ree - Mystic Mixes



password: sergych
[свернуть]
My opinion of release: 9/10
__________________
TAIFUN.Wings of Soul

Вверх
2 пользователя(ей) сказали cпасибо:
alexandro (27.12.2015), burnett_s (14.08.2018)
  #2
Старый 16.04.2015, 10:13
bloodhand
Пользователь
Досье
 
Аватар для bloodhand
По умолчанию Re: Des'ree - Mystic Mixes

Thanks a lot.

Вверх
2 пользователя(ей) сказали cпасибо:
sergych (15.08.2018), TAIFUN (14.08.2018)
  #3
Старый 12.08.2018, 09:57
alejo2214
Пользователь
Досье
 
Аватар для alejo2214
По умолчанию Re: Des'ree - Mystic Mixes

OMG Thank you very much!! I've been looking for this like crazy!

Вверх
2 пользователя(ей) сказали cпасибо:
sergych (15.08.2018), TAIFUN (14.08.2018)
  #4
Старый 15.08.2018, 06:31
sergych
Координатор
Досье
 
Аватар для sergych
По умолчанию Re: Des'ree - Mystic Mixes

alejo2214, We are glad that we were able to help you. Have a nice day!
__________________
TAIFUN.Wings of Soul

Вверх
Пользователь сказал cпасибо:
TAIFUN (15.08.2018)
Похожие темы
Тема Автор Раздел Ответов Последнее сообщение
VA Black Hole Recordings Presents Mystic Trance Episode 3 PUPOKIN Trance 0 31.01.2012 08:31
Релиз Mystic Prophecy - Ravenlord PUPOKIN Power Metal 0 27.11.2011 09:16
Альбом Karunesh - Call of the mystic PUPOKIN New age 0 12.10.2009 10:29
Микс Enigma - Mystic Mixes II LUСIAN Enigmatic 0 15.05.2008 17:51
Альбом Lesiem - Магия мистических звуков / Mystic Spirit Voices Alex_vn69 Instrumental 0 24.04.2008 21:44


Метки
1999 , des'ree , mystic mixes , pop , r&b , soul

Опции темы

Ваши права в разделе
Вы не можете создавать новые темы
Вы не можете отвечать в темах
Вы не можете прикреплять вложения
Вы не можете редактировать свои сообщения

Быстрый переход



Текущее время: 08:56. Часовой пояс GMT +3.
Powered by vBulletin® Version 3.8.10
Copyright ©2000 - 2018, vBulletin Solutions, Inc. Перевод: zCarot
© 2008 - 2018 Taifun With Song
Яндекс.Метрика