1
[Альбом] Space Buddha - Full Circle - TAIFUN With Song
TAIFUN With Song
Навигация
Вернуться   TAIFUN With Song > Music (обменник) > Club & Electronic Music > GOA
Расширенный поиск
GOA Поклонники Goa Trance музыки считают, что она является лучшим (если не единственным) способом достичь измененных состояний сознания без применения химических средств. Является ли только это истиной...

А знаете ли Вы, что...
Какая песня, часто приписываемая Элвису Пресли, никогда им не записывалась?
«Песню «Only You» часто приписывают Элвису Пресли, хотя на самом деле наиболее известными её исполнителями является группа «The Platters». Элвис пел «Only You» на некоторых концертах, но не существует ни одной аудио- или видеозаписи этой композиции в его исполнении.»
 
Опции темы

  #1
Старый 31.05.2014, 02:17
TAIFUN
Admin
Досье
 
Аватар для TAIFUN
По умолчанию Space Buddha - Full Circle


2006 - Space Buddha - Full Circle




Исполнитель/Artist: Space Buddha
Альбом/Album: Full Circle
Год/Year: 2006
Жанр/Genre: Goa Trance
Страна/Country: Израиль
Рекорд-лейбл/Record label: Agitato Records
Номер в каталоге/Catalogue #: AGE1048
Формат/Format: Free Lossless Audio Codec (*.flac)
Качество/Quality: Lossless
Тип рипа/RIP Type: tracks+.cue
Продолжительность/Length: 01:09:59
Источник/Source: Из интернета
Размер/Size: 510 MB

Сканы в комплекте

Треклист

01. Full Circle
02. Pure Energy
03. Land Of The Wolves (2006 Version)
04. Blow Your Heart Up
05. White Widow
06. Can You Hear It feat. Toast3d
07. Mental Hotline
08. Nirvana
09. Walking On Water
[свернуть]

EAC лог

Exact Audio Copy V0.99 prebeta 5 from 4. May 2009

Отчёт EAC об извлечении, выполненном 16. января 2011, 14:33

Space Buddha / Full Circle

Дисковод: PIONEER DVD-RW DVR-111D Adapter: 1 ID: 1

Режим чтения : Достоверность
Использование точного потока : Да
Отключение кэша аудио : Да
Использование указателей C2 : Нет

Коррекция смещения при чтении : 48
Способность читать области Lead-in и Lead-out : Нет
Заполнение пропущенных сэмплов тишиной : Да
Удаление блоков с тишиной в начале и конце : Нет
При вычислениях CRC использовались нулевые сэмплы : Да
Интерфейс : Встроенный Win32-интерфейс для Win NT/2000
Обработка зазоров : Добавлено к предыдущему треку

Выходной формат : Внутренние WAV-операции
Формат сэмплов : 44.100 Гц; 16 бит; стерео


TOC извлечённого CD

Трек | Старт | Длительность | Начальный сектор | Конечный сектор
---------------------------------------------------------------------
1 | 0:00.00 | 8:06.65 | 0 | 36514
2 | 8:06.65 | 7:52.51 | 36515 | 71965
3 | 15:59.41 | 8:19.60 | 71966 | 109450
4 | 24:19.26 | 8:17.31 | 109451 | 146756
5 | 32:36.57 | 7:59.12 | 146757 | 182693
6 | 40:35.69 | 6:30.11 | 182694 | 211954
7 | 47:06.05 | 7:20.44 | 211955 | 244998
8 | 54:26.49 | 8:49.51 | 244999 | 284724
9 | 63:16.25 | 6:42.39 | 284725 | 314913


Трек 1

Имя файла C:\Documents and Settings\Admin\Рабочий стол\music TRNT\Space Buddha - Full Circle 2006\01. Space Buddha - Full Circle.wav

Длина предзазора 0:00:02.00

Пиковый уровень 98.9 %
Качество трека 100.0 %
CRC теста 4E5FDD6E
CRC копии 4E5FDD6E
Точность не определена (достоверность 2) [0B482495], AccurateRip вернул [F5313A8D]
Копирование... OK

Трек 2

Имя файла C:\Documents and Settings\Admin\Рабочий стол\music TRNT\Space Buddha - Full Circle 2006\02. Space Buddha - Pure Energy.wav

Пиковый уровень 98.9 %
Качество трека 100.0 %
CRC теста 28D67212
CRC копии 28D67212
Точность не определена (достоверность 2) [2EABB363], AccurateRip вернул [299D5B02]
Копирование... OK

Трек 3

Имя файла C:\Documents and Settings\Admin\Рабочий стол\music TRNT\Space Buddha - Full Circle 2006\03. Space Buddha - Land Of The Wolves.wav

Пиковый уровень 98.9 %
Качество трека 100.0 %
CRC теста 5C31F0E0
CRC копии 5C31F0E0
Точность не определена (достоверность 2) [21A99F2F], AccurateRip вернул [7BA22EFA]
Копирование... OK

Трек 4

Имя файла C:\Documents and Settings\Admin\Рабочий стол\music TRNT\Space Buddha - Full Circle 2006\04. Space Buddha - Blow Your Heart Up.wav

Пиковый уровень 98.9 %
Качество трека 99.9 %
CRC теста 715A13D6
CRC копии 715A13D6
Точность не определена (достоверность 2) [504552BA], AccurateRip вернул [FEA60AAD]
Копирование... OK

Трек 5

Имя файла C:\Documents and Settings\Admin\Рабочий стол\music TRNT\Space Buddha - Full Circle 2006\05. Space Buddha - White Widows.wav

Пиковый уровень 98.9 %
Качество трека 99.9 %
CRC теста C7F783E1
CRC копии C7F783E1
Точность не определена (достоверность 2) [BAC81537], AccurateRip вернул [64440A47]
Копирование... OK

Трек 6

Имя файла C:\Documents and Settings\Admin\Рабочий стол\music TRNT\Space Buddha - Full Circle 2006\06. Space Buddha - Can You Hear It.wav

Пиковый уровень 98.8 %
Качество трека 100.0 %
CRC теста 48478C94
CRC копии 48478C94
Точность не определена (достоверность 2) [3536A350], AccurateRip вернул [06796FA7]
Копирование... OK

Трек 7

Имя файла C:\Documents and Settings\Admin\Рабочий стол\music TRNT\Space Buddha - Full Circle 2006\07. Space Buddha - Mental Hotline.wav

Пиковый уровень 98.9 %
Качество трека 100.0 %
CRC теста 502CFE1D
CRC копии 502CFE1D
Точность не определена (достоверность 2) [443ED6A4], AccurateRip вернул [96362ADD]
Копирование... OK

Трек 8

Имя файла C:\Documents and Settings\Admin\Рабочий стол\music TRNT\Space Buddha - Full Circle 2006\08. Space Buddha - Nirvana.wav

Пиковый уровень 98.8 %
Качество трека 100.0 %
CRC теста 1C280B91
CRC копии 1C280B91
Точность не определена (достоверность 2) [B1960FAF], AccurateRip вернул [3BB93F2E]
Копирование... OK

Трек 9

Имя файла C:\Documents and Settings\Admin\Рабочий стол\music TRNT\Space Buddha - Full Circle 2006\09. Space Buddha - Walking On Water.wav

Пиковый уровень 98.8 %
Качество трека 100.0 %
CRC теста 75CE345C
CRC копии 75CE345C
Точность не определена (достоверность 2) [340E0EDD], AccurateRip вернул [84B1BD3A]
Копирование... OK


Ни один трек не прошёл проверки на точность
В вашей базе может быть иной вариант штамповки диска

Ошибок не произошло

Конец отчёта
[свернуть]

Файл CUE

REM GENRE Goa / Psychedelic
REM DATE 2006
REM DISCID 9B106609
REM COMMENT ExactAudioCopy v0.99pb5
PERFORMER "Space Buddha"
TITLE "Full Circle"
FILE "01. Space Buddha - Full Circle.flac" WAVE
TRACK 01 AUDIO
TITLE "Full Circle"
INDEX 01 00:00:00
FILE "02. Space Buddha - Pure Energy.flac" WAVE
TRACK 02 AUDIO
TITLE "Pure Energy"
INDEX 01 00:00:00
FILE "03. Space Buddha - Land Of The Wolves (2006 Version).flac" WAVE
TRACK 03 AUDIO
TITLE "Land Of The Wolves (2006 Version)"
INDEX 01 00:00:00
FILE "04. Space Buddha - Blow Your Heart Up.flac" WAVE
TRACK 04 AUDIO
TITLE "Blow Your Heart Up"
INDEX 01 00:00:00
FILE "05. Space Buddha - White Widows.flac" WAVE
TRACK 05 AUDIO
TITLE "White Widows"
INDEX 01 00:00:00
FILE "06. Space Buddha - Can You Hear It feat. Toast3d.flac" WAVE
TRACK 06 AUDIO
TITLE "Can You Hear It feat. Toast3d"
INDEX 01 00:00:00
FILE "07. Space Buddha - Mental Hotline.flac" WAVE
TRACK 07 AUDIO
TITLE "Mental Hotline"
INDEX 01 00:00:00
FILE "08. Space Buddha - Nirvana.flac" WAVE
TRACK 08 AUDIO
TITLE "Nirvana"
INDEX 01 00:00:00
FILE "09. Space Buddha - Walking On Water.flac" WAVE
TRACK 09 AUDIO
TITLE "Walking On Water"
INDEX 01 00:00:00
[свернуть]

Лог проверки качества

AUDIOCHECKER v2.0 beta (build 457) - by Dester - [Ссылки могут видеть только зарегистрированные и активированные пользователи.]
[Only registered and activated users can see links.]
~~~~~~~~~~~~~~~~~~~~~~~~~~~~~~~~~~

Started at: суббота, 15. 01. 2011. - 20:25.05
9 files found

1 -===- C:\Documents and Settings\Admin\Рабочий стол\music TRNT\Space Buddha - Full Circle 2006\06. Space Buddha - Can You Hear It.flac
Extracted successfully
Conclusion: this track is CDDA with probability 100%
Tempfile successfully deleted.

2 -===- C:\Documents and Settings\Admin\Рабочий стол\music TRNT\Space Buddha - Full Circle 2006\07. Space Buddha - Mental Hotline.flac
Extracted successfully
Conclusion: this track is CDDA with probability 100%
Tempfile successfully deleted.

3 -===- C:\Documents and Settings\Admin\Рабочий стол\music TRNT\Space Buddha - Full Circle 2006\08. Space Buddha - Nirvana.flac
Extracted successfully
Conclusion: this track is CDDA with probability 100%
Tempfile successfully deleted.

4 -===- C:\Documents and Settings\Admin\Рабочий стол\music TRNT\Space Buddha - Full Circle 2006\09. Space Buddha - Walking On Water.flac
Extracted successfully
Conclusion: this track is CDDA with probability 100%
Tempfile successfully deleted.

5 -===- C:\Documents and Settings\Admin\Рабочий стол\music TRNT\Space Buddha - Full Circle 2006\01. Space Buddha - Full Circle.flac
Extracted successfully
Conclusion: this track is CDDA with probability 100%
Tempfile successfully deleted.

6 -===- C:\Documents and Settings\Admin\Рабочий стол\music TRNT\Space Buddha - Full Circle 2006\02. Space Buddha - Pure Energy.flac
Extracted successfully
Conclusion: this track is CDDA with probability 99%
Tempfile successfully deleted.

7 -===- C:\Documents and Settings\Admin\Рабочий стол\music TRNT\Space Buddha - Full Circle 2006\03. Space Buddha - Land Of The Wolves.flac
Extracted successfully
Conclusion: this track is CDDA with probability 100%
Tempfile successfully deleted.

8 -===- C:\Documents and Settings\Admin\Рабочий стол\music TRNT\Space Buddha - Full Circle 2006\04. Space Buddha - Blow Your Heart Up.flac
Extracted successfully
Conclusion: this track is CDDA with probability 99%
Tempfile successfully deleted.

9 -===- C:\Documents and Settings\Admin\Рабочий стол\music TRNT\Space Buddha - Full Circle 2006\05. Space Buddha - White Widows.flac
Extracted successfully
Conclusion: this track is CDDA with probability 100%
Tempfile successfully deleted.


Finished at: суббота, 15. 01. 2011. - 20:44.46 (operation time: 0:19.40)
[свернуть]

Скачать Space Buddha - Full Circle

[Ссылки могут видеть только зарегистрированные и активированные пользователи.]
[Only registered and activated users can see links.]
[свернуть]
My opinion of release: 9/10

Release info RInfo

Лично для меня, Space Buddha - это образец жанра Goa Trance.
Красивые мелодии, без жёстко-затяжного психодела, а мелодичный psy. Гармоничное сплетение.

Для всей выложенной мною дискографии Space Buddha были приведены в порядок теги, имена файлов, .cue (+ созданы при отсутствии таковых (без учёта длительности композиций))


Последний раз редактировалось TAIFUN, 31.05.2014 в 04:52.
Вверх
2 пользователя(ей) сказали cпасибо:
sergych (31.05.2014), Zarohoff (15.09.2018)
  #2
Старый 15.09.2018, 18:59
Zarohoff
Меломан
Досье
 
Аватар для Zarohoff
По умолчанию Re: Space Buddha - Full Circle

Спасибо!

Вверх
Похожие темы
Тема Автор Раздел Ответов Последнее сообщение
Альбом Space Buddha - Stigmata TAIFUN GOA 1 15.09.2018 19:00
Альбом Space Buddha - Space Buddha TAIFUN GOA 0 30.05.2014 04:32
Релиз Atjazz - Full Circle PUPOKIN Deep House 0 09.07.2010 10:37
Релиз Creed - Full Circle PUPOKIN Alternative Rock 0 01.10.2009 15:34
Streamline - Full Circle PUPOKIN Alternative Rock 0 25.09.2008 12:01


Метки
2006 , full circle , goa trance , space buddha

Опции темы

Ваши права в разделе
Вы не можете создавать новые темы
Вы не можете отвечать в темах
Вы не можете прикреплять вложения
Вы не можете редактировать свои сообщения

Быстрый переход



Текущее время: 08:54. Часовой пояс GMT +3.
Powered by vBulletin® Version 3.8.10
Copyright ©2000 - 2018, vBulletin Solutions, Inc. Перевод: zCarot
© 2008 - 2018 Taifun With Song
Яндекс.Метрика