TAIFUN With Song
Навигация
Jazz и Blues Гибкая ритмика, импровизационное начало, гармонии и мелодии - все это Jazz. Blues - жизнеутверждающая музыка, рожденная из душевной боли

А знаете ли Вы, что...
Какая песня, часто приписываемая Элвису Пресли, никогда им не записывалась?
«Песню «Only You» часто приписывают Элвису Пресли, хотя на самом деле наиболее известными её исполнителями является группа «The Platters». Элвис пел «Only You» на некоторых концертах, но не существует ни одной аудио- или видеозаписи этой композиции в его исполнении.»
 
Опции темы

  #1
Старый 24.09.2013, 19:02
sergych
Координатор
Досье
 
Аватар для sergych
Релиз Diana Krall - The Look Of Love


2001 - Diana Krall - The Look Of Love




Исполнитель/Artist: Diana Krall
Альбом/Album: The Look Of Love
Год/Year: 2001
Жанр/Genre: Smooth Jazz, Contemporary Jazz, Vocal jazz
Страна/Country: Европа
Рекорд-лейбл/Record label: Verve
Номер в каталоге/Catalogue #: 549 846-2
Формат/Format: Free Lossless Audio Codec (*.flac)
Качество/Quality: Lossless
Тип рипа/RIP Type: tracks+.cue
Продолжительность/Length: 00:50:30
Источник/Source: Из интернета
Размер/Size: 328.9 MB

Сканы в комплекте

Треклист

01 - S'Wonderful
02 - Love Letters
03 - I Remember You
04 - Cry Me A River
05 - Besame Mucho
06 - The Night We Called It A Day
07 - Dancing In The Dark
08 - I Get Along Without You Very Well
09 - The Look Of Love
10 - Maybe You'll Be There
[свернуть]

youtube.com

[свернуть]

Исполнители/Performers

Diana Krall - piano, vocals (all tracks)
Dori Caymmi - guitar (track 1)
Romero Lubambo - guitar (tracks 7 & 9)
Russell Malone - guitar (tracks 2, 4, 6, 8, & 10)
John Pisano - guitar (tracks 3 & 5)
Luis Conte - percussion (tracks 7 & 9)
Paulinho Da Costa - percussion (tracks 1, 3, & 5)
Peter Erskine - drums (tracks 2, 4, 6, 7, 8, & 9)
Jeff Hamilton - drums (tracks 1, 3, & 5)
Christian McBride - double bass (all tracks)
London Symphony Orchestra (tracks 2, 4, 6, 7, 8, 9, & 10)
Los Angeles session orchestra (tracks 1, 3, & 5)
Claus Ogerman - orchestra conductor, arranger
[свернуть]

EAC лог

Exact Audio Copy V1.0 beta 1 from 15. November 2010

Отчёт EAC об извлечении, выполненном 5. апреля 2012, 8:04

Diana Krall / The Look Of Love

Дисковод: HL-DT-STDVDRAM GT32N Adapter: 1 ID: 0

Режим чтения : Достоверность
Использование точного потока : Да
Отключение кэша аудио : Да
Использование указателей C2 : Нет

Коррекция смещения при чтении : 103
Способность читать области Lead-in и Lead-out : Нет
Заполнение пропущенных сэмплов тишиной : Да
Удаление блоков с тишиной в начале и конце : Нет
При вычислениях CRC использовались нулевые сэмплы : Да
Интерфейс : Встроенный Win32-интерфейс для Win NT/2000
Обработка зазоров : Добавлено к предыдущему треку

Выходной формат : Пользовательский кодировщик
Выбранный битрейт : 768 kBit/s
Качество : Высокий
Добавление ID3-тега : Нет
Утилита сжатия : C:\Program Files (x86)\Exact Audio Copy\Flac\flac.exe
Дополнительные параметры : -8 -V %s


TOC извлечённого CD

Трек | Старт | Длительность | Начальный сектор | Конечный сектор
---------------------------------------------------------------------
1 | 0:00.00 | 4:29.15 | 0 | 20189
2 | 4:29.15 | 4:56.10 | 20190 | 42399
3 | 9:25.25 | 3:56.25 | 42400 | 60124
4 | 13:21.50 | 5:03.43 | 60125 | 82892
5 | 18:25.18 | 6:40.32 | 82893 | 112924
6 | 25:05.50 | 5:43.45 | 112925 | 138694
7 | 30:49.20 | 5:48.33 | 138695 | 164827
8 | 36:37.53 | 3:44.60 | 164828 | 181687
9 | 40:22.38 | 4:42.00 | 181688 | 202837
10 | 45:04.38 | 5:30.13 | 202838 | 227600


Трек 1

Имя файла C:\Users\Admin\Music\Diana Krall - дискография\2001 - The Look Of Love [FLAC]\01. S'Wonderful.wav

Длина предзазора 0:00:02.00

Пиковый уровень 100.0 %
Скорость извлечения 1.2 X
Качество трека 100.0 %
CRC теста 43F181DF
CRC копии 43F181DF
Точное извлечение (достоверность 9) [A4028CB4]
Копирование... OK

Трек 2

Имя файла C:\Users\Admin\Music\Diana Krall - дискография\2001 - The Look Of Love [FLAC]\02. Love Letters.wav

Длина предзазора 0:00:00.33

Пиковый уровень 100.0 %
Скорость извлечения 1.3 X
Качество трека 100.0 %
CRC теста DF402748
CRC копии DF402748
Точное извлечение (достоверность 9) [377CF193]
Копирование... OK

Трек 3

Имя файла C:\Users\Admin\Music\Diana Krall - дискография\2001 - The Look Of Love [FLAC]\03. I Remember You.wav

Длина предзазора 0:00:00.35

Пиковый уровень 100.0 %
Скорость извлечения 1.4 X
Качество трека 100.0 %
CRC теста 7847E1FD
CRC копии 7847E1FD
Точное извлечение (достоверность 9) [CAD763AA]
Копирование... OK

Трек 4

Имя файла C:\Users\Admin\Music\Diana Krall - дискография\2001 - The Look Of Love [FLAC]\04. Cry Me A River.wav

Длина предзазора 0:00:00.63

Пиковый уровень 100.0 %
Скорость извлечения 1.6 X
Качество трека 100.0 %
CRC теста 75E4EBEF
CRC копии 75E4EBEF
Точное извлечение (достоверность 9) [3E4B6649]
Копирование... OK

Трек 5

Имя файла C:\Users\Admin\Music\Diana Krall - дискография\2001 - The Look Of Love [FLAC]\05. Besame Mucho.wav

Пиковый уровень 100.0 %
Скорость извлечения 1.8 X
Качество трека 100.0 %
CRC теста E05644C7
CRC копии E05644C7
Точное извлечение (достоверность 8) [D4B77536]
Копирование... OK

Трек 6

Имя файла C:\Users\Admin\Music\Diana Krall - дискография\2001 - The Look Of Love [FLAC]\06. The Night We Called It A Day.wav

Длина предзазора 0:00:00.15

Пиковый уровень 100.0 %
Скорость извлечения 1.9 X
Качество трека 100.0 %
CRC теста 24121EAF
CRC копии 24121EAF
Точное извлечение (достоверность 9) [0DC7DA7F]
Копирование... OK

Трек 7

Имя файла C:\Users\Admin\Music\Diana Krall - дискография\2001 - The Look Of Love [FLAC]\07. Dancing In The Dark.wav

Длина предзазора 0:00:01.70

Пиковый уровень 100.0 %
Скорость извлечения 2.0 X
Качество трека 100.0 %
CRC теста 0F07CD0A
CRC копии 0F07CD0A
Точное извлечение (достоверность 9) [BB81EEB2]
Копирование... OK

Трек 8

Имя файла C:\Users\Admin\Music\Diana Krall - дискография\2001 - The Look Of Love [FLAC]\08. I Get Along Without You Very Well.wav

Пиковый уровень 100.0 %
Скорость извлечения 1.7 X
Качество трека 99.9 %
CRC теста 418B78E0
CRC копии 418B78E0
Точное извлечение (достоверность 9) [7586F2AF]
Копирование... OK

Трек 9

Имя файла C:\Users\Admin\Music\Diana Krall - дискография\2001 - The Look Of Love [FLAC]\09. The Look Of Love.wav

Длина предзазора 0:00:00.13

Пиковый уровень 100.0 %
Скорость извлечения 2.2 X
Качество трека 100.0 %
CRC теста 4F51AAF6
CRC копии 4F51AAF6
Точное извлечение (достоверность 9) [539635EA]
Копирование... OK

Трек 10

Имя файла C:\Users\Admin\Music\Diana Krall - дискография\2001 - The Look Of Love [FLAC]\10. Maybe You'll Be There.wav

Пиковый уровень 100.0 %
Скорость извлечения 2.3 X
Качество трека 100.0 %
CRC теста 3E53305F
CRC копии 3E53305F
Точное извлечение (достоверность 9) [1443E738]
Копирование... OK


Все треки извлечены точно

Ошибок не произошло

Конец отчёта
[свернуть]

Файл CUE

REM GENRE Jazz
REM DATE 2001
REM DISCID 7E0BDA0A
REM COMMENT "ExactAudioCopy v1.0b1"
PERFORMER "Diana Krall"
TITLE "The Look Of Love"
FILE "01. S'Wonderful.wav" WAVE
TRACK 01 AUDIO
TITLE "S'Wonderful"
PERFORMER "Diana Krall"
INDEX 01 00:00:00
TRACK 02 AUDIO
TITLE "Love Letters"
PERFORMER "Diana Krall"
INDEX 00 04:28:57
FILE "02. Love Letters.wav" WAVE
INDEX 01 00:00:00
TRACK 03 AUDIO
TITLE "I Remember You"
PERFORMER "Diana Krall"
INDEX 00 04:55:50
FILE "03. I Remember You.wav" WAVE
INDEX 01 00:00:00
TRACK 04 AUDIO
TITLE "Cry Me A River"
PERFORMER "Diana Krall"
INDEX 00 03:55:37
FILE "04. Cry Me A River.wav" WAVE
INDEX 01 00:00:00
FILE "05. Besame Mucho.wav" WAVE
TRACK 05 AUDIO
TITLE "Besame Mucho"
PERFORMER "Diana Krall"
INDEX 01 00:00:00
TRACK 06 AUDIO
TITLE "The Night We Called It A Day"
PERFORMER "Diana Krall"
INDEX 00 06:40:17
FILE "06. The Night We Called It A Day.wav" WAVE
INDEX 01 00:00:00
TRACK 07 AUDIO
TITLE "Dancing In The Dark"
PERFORMER "Diana Krall"
INDEX 00 05:41:50
FILE "07. Dancing In The Dark.wav" WAVE
INDEX 01 00:00:00
FILE "08. I Get Along Without You Very Well.wav" WAVE
TRACK 08 AUDIO
TITLE "I Get Along Without You Very Well"
PERFORMER "Diana Krall"
INDEX 01 00:00:00
TRACK 09 AUDIO
TITLE "The Look Of Love"
PERFORMER "Diana Krall"
INDEX 00 03:44:47
FILE "09. The Look Of Love.wav" WAVE
INDEX 01 00:00:00
FILE "10. Maybe You'll Be There.wav" WAVE
TRACK 10 AUDIO
TITLE "Maybe You'll Be There"
PERFORMER "Diana Krall"
INDEX 01 00:00:00
[свернуть]

Лог проверки качества

AUDIOCHECKER v2.0 beta (build 457) - by Dester -
~~~~~~~~~~~~~~~~~~~~~~~~~~~~~~~~~~
-=== НЕ РЕДАКТИРУЙТЕ ЭТОТ ФАЙЛ! ===-

Путь: ...\2001 - The Look Of Love

01 -=- 01. S'Wonderful.flac -=- CDDA (100%)
02 -=- 02. Love Letters.flac -=- CDDA (100%)
03 -=- 03. I Remember You.flac -=- CDDA (100%)
04 -=- 04. Cry Me A River.flac -=- CDDA (100%)
05 -=- 05. Besame Mucho.flac -=- CDDA (100%)
06 -=- 06. The Night We Called It A Day.flac -=- CDDA (99%)
07 -=- 07. Dancing In The Dark.flac -=- CDDA (99%)
08 -=- 08. I Get Along Without You Very Well.flac -=- CDDA (100%)
09 -=- 09. The Look Of Love.flac -=- CDDA (99%)
10 -=- 10. Maybe You'll Be There.flac -=- CDDA (100%)

Сводка 99,70% CDDA

14261300
[свернуть]

Скачать Diana Krall - The Look Of Love



password: sergych
[свернуть]
My opinion of release: 10/10
__________________
TAIFUN.Wings of Soul

Вверх
  #2
Старый 15.03.2014, 13:16
sergych
Координатор
Досье
 
Аватар для sergych
Релиз Re: Diana Krall - The Look Of Love


2001 - Diana Krall - The Look Of Love




Исполнитель/Artist: Diana Krall
Альбом/Album: The Look Of Love
Год/Year: 2001
Жанр/Genre: Smooth Jazz, Contemporary Jazz, Vocal jazz
Страна/Country: Соединённые Штаты
Рекорд-лейбл/Record label: Verve
Номер в каталоге/Catalogue #: 341 549 846-2
Формат/Format: Free Lossless Audio Codec (*.flac)
Качество/Quality: Lossless
Тип рипа/RIP Type: image+.cue
Продолжительность/Length: 00:50:34
Источник/Source: Собственный рип
Размер/Size: 356.7 MB

Сканы в комплекте

Треклист

01. S'Wonderful [0:04:29.15]
02. Love Letters [0:04:56.27]
03. I Remember You [0:03:56.08]
04. Cry Me a River [0:05:03.60]
05. Besame Mucho [0:06:40.15]
06. The Night We Called It a Day [0:05:42.27]
07. Dancing in the Dark [0:05:48.23]
08. I Get Along Without You Very Well [0:03:45.00]
09. The Look of Love [0:04:42.10]
10. Maybe You'll Be There [0:05:31.05]
[свернуть]

youtube.com

[свернуть]

Исполнители/Performers

Diana Krall - piano, vocals (all tracks)
Dori Caymmi - guitar (track 1)
Romero Lubambo - guitar (tracks 7 & 9)
Russell Malone - guitar (tracks 2, 4, 6, 8, & 10)
John Pisano - guitar (tracks 3 & 5)
Luis Conte - percussion (tracks 7 & 9)
Paulinho Da Costa - percussion (tracks 1, 3, & 5)
Peter Erskine - drums (tracks 2, 4, 6, 7, 8, & 9)
Jeff Hamilton - drums (tracks 1, 3, & 5)
Christian McBride - double bass (all tracks)
London Symphony Orchestra (tracks 2, 4, 6, 7, 8, 9, & 10)
Los Angeles session orchestra (tracks 1, 3, & 5)
Claus Ogerman - orchestra conductor, arranger
[свернуть]

EAC лог

Exact Audio Copy V1.0 beta 3 from 29. August 2011

EAC extraction logfile from 15. March 2014, 15:26

Diana Krall / The Look of Love

Used drive : ATAPI iHAS124 D Adapter: 0 ID: 2

Read mode : Secure
Utilize accurate stream : Yes
Defeat audio cache : Yes
Make use of C2 pointers : Yes

Read offset correction : 6
Overread into Lead-In and Lead-Out : No
Fill up missing offset samples with silence : Yes
Delete leading and trailing silent blocks : No
Null samples used in CRC calculations : Yes
Used interface : Installed external ASPI interface

Used output format : User Defined Encoder
Selected bitrate : 1024 kBit/s
Quality : High
Add ID3 tag : No
Command line compressor : C:\Program Files (x86)\Exact Audio Copy\Flac\flac.exe
Additional command line options : -6 -V -T "ARTIST=%artist%" -T "TITLE=%title%" -T "ALBUM=%albumtitle%" -T "DATE=%year%" -T "TRACKNUMBER=%tracknr%" -T "GENRE=%genre%" -T "COMMENT=%comment%" -T "BAND=%albuminterpret%" -T "COMPOSER=%composer%" %haslyrics%--tag-from-file=LYRICS="%lyricsfile%"%haslyrics% -T "DISCNUMBER=%cdnumber%" -T "TOTALDISCS=%totalcds%" -T "TOTALTRACKS=%numtracks%" %hascover%--picture="%coverfile%"%hascover% %source% -o %dest%


TOC of the extracted CD

Track | Start | Length | Start sector | End sector
---------------------------------------------------------
1 | 0:00.00 | 4:29.15 | 0 | 20189
2 | 4:29.15 | 4:56.27 | 20190 | 42416
3 | 9:25.42 | 3:56.08 | 42417 | 60124
4 | 13:21.50 | 5:03.60 | 60125 | 82909
5 | 18:25.35 | 6:40.15 | 82910 | 112924
6 | 25:05.50 | 5:42.27 | 112925 | 138601
7 | 30:48.02 | 5:48.23 | 138602 | 164724
8 | 36:36.25 | 3:45.00 | 164725 | 181599
9 | 40:21.25 | 4:42.10 | 181600 | 202759
10 | 45:03.35 | 5:31.05 | 202760 | 227589


Range status and errors

Selected range

Filename C:\mm\Diana Krall\2001 - The Look Of Love [341 549 846-2]\Diana Krall - The Look of Love.wav

Peak level 100.0 %
Extraction speed 12.9 X
Range quality 100.0 %
Test CRC A6F4F18B
Copy CRC A6F4F18B
Copy OK

No errors occurred


AccurateRip summary

Track 1 accurately ripped (confidence 152) [24ECB342] (AR v2)
Track 2 accurately ripped (confidence 153) [BF65B0EB] (AR v2)
Track 3 accurately ripped (confidence 152) [4A32577D] (AR v2)
Track 4 accurately ripped (confidence 153) [AFD54F21] (AR v2)
Track 5 accurately ripped (confidence 152) [853A52E5] (AR v2)
Track 6 accurately ripped (confidence 152) [61FEFC40] (AR v2)
Track 7 accurately ripped (confidence 154) [DAF1A4DF] (AR v2)
Track 8 accurately ripped (confidence 151) [6D8F7A4D] (AR v2)
Track 9 accurately ripped (confidence 151) [5B2EC10A] (AR v2)
Track 10 accurately ripped (confidence 150) [A195C24D] (AR v2)

All tracks accurately ripped

End of status report
[свернуть]

Файл CUE

REM GENRE Jazz
REM DATE 2001
REM DISCID 7A0BDA0A
REM COMMENT "ExactAudioCopy v1.0b3"
PERFORMER "Diana Krall"
TITLE "The Look of Love"
FILE "Diana Krall - The Look of Love.flac" WAVE
TRACK 01 AUDIO
TITLE "S'Wonderful"
PERFORMER "Diana Krall"
INDEX 01 00:00:00
TRACK 02 AUDIO
TITLE "Love Letters"
PERFORMER "Diana Krall"
INDEX 00 04:28:57
INDEX 01 04:29:15
TRACK 03 AUDIO
TITLE "I Remember You"
PERFORMER "Diana Krall"
INDEX 00 09:24:65
INDEX 01 09:25:42
TRACK 04 AUDIO
TITLE "Cry Me a River"
PERFORMER "Diana Krall"
INDEX 00 13:20:62
INDEX 01 13:21:50
TRACK 05 AUDIO
TITLE "Besame Mucho"
PERFORMER "Diana Krall"
INDEX 01 18:25:35
TRACK 06 AUDIO
TITLE "The Night We Called It a Day"
PERFORMER "Diana Krall"
INDEX 00 25:05:35
INDEX 01 25:05:50
TRACK 07 AUDIO
TITLE "Dancing in the Dark"
PERFORMER "Diana Krall"
INDEX 00 30:46:52
INDEX 01 30:48:02
TRACK 08 AUDIO
TITLE "I Get Along Without You Very Well"
PERFORMER "Diana Krall"
INDEX 01 36:36:25
TRACK 09 AUDIO
TITLE "The Look of Love"
PERFORMER "Diana Krall"
INDEX 00 40:21:00
INDEX 01 40:21:25
TRACK 10 AUDIO
TITLE "Maybe You'll Be There"
PERFORMER "Diana Krall"
INDEX 01 45:03:35
[свернуть]

Лог проверки качества

AUDIOCHECKER v2.0 beta (build 457) - by Dester -
~~~~~~~~~~~~~~~~~~~~~~~~~~~~~~~~~~
-=== НЕ РЕДАКТИРУЙТЕ ЭТОТ ФАЙЛ! ===-

Путь: ...\2001 - The Look Of Love [341 549 846-2]

1 -=- Diana Krall - The Look of Love.flac -=- CDDA (100%)

214939988
[свернуть]

Спектр частот

[свернуть]

Скачать Diana Krall - The Look Of Love



password: sergych
[свернуть]
My opinion of release: 10/10
__________________
TAIFUN.Wings of Soul

Вверх
Пользователь сказал cпасибо:
Lighting1981 (03.09.2017)
Похожие темы
Тема Автор Раздел Ответов Последнее сообщение
Альбом Diana Krall - When I Look In Your Eyes sergych Jazz и Blues 1 13.01.2016 17:56
Альбом Diana Krall - Love Scenes sergych Jazz и Blues 0 24.09.2013 13:27
Альбом Diana Krall - Only Trust Your Heart sergych Jazz и Blues 0 23.09.2013 20:08
Альбом Diana Krall - Stepping Out sergych Jazz и Blues 0 23.09.2013 18:47
Релиз Diana Krall - Glad Rag Doll (Deluxe Edition) PUPOKIN Jazz и Blues 0 28.09.2012 09:34


Метки
2001 , contemporary jazz , diana krall , smooth jazz , the look of love , vocal jazz

Опции темы

Ваши права в разделе
Вы не можете создавать новые темы
Вы не можете отвечать в темах
Вы не можете прикреплять вложения
Вы не можете редактировать свои сообщения

Быстрый переход



Текущее время: 16:50. Часовой пояс GMT +3.
Powered by vBulletin® Version 3.8.10
Copyright ©2000 - 2018, vBulletin Solutions, Inc. Перевод: zCarot
© 2008 - 2018 Taifun With Song
Яндекс.Метрика