TAIFUN With Song
Навигация
Вернуться   TAIFUN With Song > Music (обменник) > Rock > Psychedelic Rock
Расширенный поиск
Psychedelic Rock Психоделический рок — сложная, экспрессивная музыка, сильно воздействующая на слушателя. Для этого используется широкий арсенал средств музыкальной выразительности и специальные эффекты при исполнении музыки. Характерной чертой психоделического рока стали продолжительные сольные партии ведущих инструментов и свой гармонический фон - переплетение мажорных и минорных гармоний, альтерации на 3-й, 5-й, 7-й ступенях и задержания на них, а также частая опора мелодии на неустойчивые звуки.

А знаете ли Вы, что...
Что поётся в песенке «уно-уно-уно, ун моменто»?
«Песенка «уно-уно-уно, ун моменто» из фильма «Формула любви» кажется написанной на итальянском языке. В действительности её текст представляет собой несвязный набор из итальянских слов, а придуман он был композитором фильма Геннадием Гладковым.»
 
Опции темы

  #1
Старый 02.05.2008, 14:49
sergych
Координатор
Досье
 
Аватар для sergych
Релиз Pink Floyd - The Division Bell

1994 - The Division Bell



Исполнитель/Artist: Pink Floyd
Альбом/Album: The Division Bell
Год/Year: 1994
Жанр/Genre: Psychedelic rock
Формат/Format: mp3 CBR
Качество/Quality: 192 kbps JStereo
Размер/Size: 90.8 MB
Продолжительность/Length: 01:06:31

Треклист

01 - Cluster One
02 - What Do You Want From Me
03 - Poles Apart
04 - Marooned
05 - A Great Day For Freedom
06 - Wearing The Inside Out
07 - Take It Back
08 - Coming Back To Life
09 - Keep Talking
10 - Lost For Words
11 - High Hopes
[свернуть]
Все песни содержат текст и обложку

Скачать


[Ссылки могут видеть только зарегистрированные и активированные пользователи.]
[Only registered and activated users can see links.]

password: sergych
[свернуть]
My opinion of release: 10/10
__________________
TAIFUN.Wings of Soul


Последний раз редактировалось sergych, 03.07.2018 в 19:22. Причина: перезаливка
Вверх
3 пользователя(ей) сказали cпасибо:
Показать список поблагодаривших
  #2
Старый 01.06.2010, 14:45
sergych
Координатор
Досье
 
Аватар для sergych
Thumbs up


1994 - Pink Floyd - The Division Bell




Исполнитель/Artist: Pink Floyd
Альбом/Album: The Division Bell
Год/Year: 1994
Жанр/Genre: Psychedelic rock, Progressive rock
Страна/Country: Япония
Рекорд-лейбл/Record label: Sony Music
Номер в каталоге/Catalogue #: SRCS 7324
Формат/Format: MPEG Layer-3 (*.mp3)
Качество/Quality: CBR 320 kbps
Тип рипа/RIP Type: image+.cue
Продолжительность/Length: 01:06:32
Источник/Source: Из интернета
Размер/Size: 191.8 MB

Сканы в комплекте

Треклист

01 - Cluster One
02 - What Do You Want From Me
03 - Poles Apart
04 - Marooned
05 - A Great Day For Freedom
06 - Wearing The Inside Out
07 - Take It Back
08 - Coming Back To Life
09 - Keep Talking
10 - Lost For Words
11 - High Hopes
[свернуть]

Файл CUE

TITLE "The Division Bell"
PERFORMER "Pink Floyd"
REM GENRE "Rock"
REM DATE "1994"
FILE "01 - Cluster One.mp3" MP3
TRACK 01 AUDIO
INDEX 01 00:00:00
TITLE "Cluster One"
REM COMMENT "ExactAudioCopy v0.95b4"
TRACK 02 AUDIO
INDEX 01 05:57:60
TITLE "What Do You Want from Me"
REM COMMENT "ExactAudioCopy v0.95b4"
TRACK 03 AUDIO
INDEX 01 10:19:45
TITLE "Poles Apart"
REM COMMENT "ExactAudioCopy v0.95b4"
TRACK 04 AUDIO
INDEX 01 17:24:00
TITLE "Marooned"
REM COMMENT "ExactAudioCopy v0.95b4"
TRACK 05 AUDIO
INDEX 01 22:52:17
TITLE "A Great Day for Freedom"
REM COMMENT "ExactAudioCopy v0.95b4"
TRACK 06 AUDIO
INDEX 01 27:10:57
TITLE "Wearing the Inside Out"
REM COMMENT "ExactAudioCopy v0.95b4"
TRACK 07 AUDIO
INDEX 01 34:00:35
TITLE "Take It Back"
REM COMMENT "ExactAudioCopy v0.95b4"
TRACK 08 AUDIO
INDEX 01 40:12:50
TITLE "Coming Back to Life"
REM COMMENT "ExactAudioCopy v0.95b4"
TRACK 09 AUDIO
INDEX 01 46:32:17
TITLE "Keep Talking"
REM COMMENT "ExactAudioCopy v0.95b4"
TRACK 10 AUDIO
INDEX 01 52:43:35
TITLE "Lost for Words"
REM COMMENT "ExactAudioCopy v0.95b4"
TRACK 11 AUDIO
INDEX 01 57:58:15
TITLE "High Hopes"
REM COMMENT "ExactAudioCopy v0.95b4"
[свернуть]

Скачать Pink Floyd - The Division Bell

[Ссылки могут видеть только зарегистрированные и активированные пользователи.]
[Only registered and activated users can see links.]

password: sergych
[свернуть]

Контрольная сумма (хеш-сумма) архива

MD5: 9979f0e595475a94005d000eefbcfddf
[свернуть]
My opinion of release: 10/10
__________________
TAIFUN.Wings of Soul


Последний раз редактировалось sergych, 03.07.2018 в 19:36. Причина: перезаливка + переоформление
Вверх
2 пользователя(ей) сказали cпасибо:
swint68 (04.07.2018), TAIFUN (04.06.2010)
  #3
Старый 04.06.2010, 03:27
TAIFUN
Admin
Досье
 
Аватар для TAIFUN
По умолчанию

Пожалуй самый любимый альбом Флойдов без Уотерса. Гилмор молодец!
Многих гитаристов считают великими за виртуозность, вклад, а я считаю Гилмора талантливейшим гитаристом по той причине, что слушая его музыку у меня создаётся впечатление, что он говорит своей гитарой..
Признаться, я такого не ощущал как от игры Гилмора.. да, от многих чувствуется драйв, заводная энергия, виртуозность, но по передаче эмоций и вызова чувств - Гилмор лучший!

My opinion of release: 10/10
__________________
I love music
FAQ по форуму
Правила форума
Жизнь человека - это не самое главное в его жизни...


Последний раз редактировалось TAIFUN, 04.06.2010 в 19:57.
Вверх
Пользователь сказал cпасибо:
sergych (04.06.2010)
  #4
Старый 03.07.2018, 19:53
sergych
Координатор
Досье
 
Аватар для sergych
Релиз Re: Pink Floyd - The Division Bell


1994 - Pink Floyd - The Division Bell




Исполнитель/Artist: Pink Floyd
Альбом/Album: The Division Bell
Год/Year: 1994
Жанр/Genre: Psychedelic rock, Progressive rock
Страна/Country: Соединённые Штаты
Рекорд-лейбл/Record label: Sony / Columbia
Номер в каталоге/Catalogue #: CK 64200
Формат/Format: Free Lossless Audio Codec (*.flac)
Качество/Quality: Lossless
Тип рипа/RIP Type: image+.cue
Продолжительность/Length: 01:06:31
Источник/Source: Собственный рип
Размер/Size: 469.7 MB

Сканы в комплекте

Треклист

01. Cluster One [0:05:58.27]
02. What Do You Want from Me [0:04:21.48]
03. Poles Apart [0:07:04.05]
04. Marooned [0:05:29.45]
05. A Great Day for Freedom [0:04:17.47]
06. Wearing the Inside Out [0:06:49.38]
07. Take It Back [0:06:12.30]
08. Coming Back to Life [0:06:19.32]
09. Keep Talking [0:06:11.08]
10. Lost for Words [0:05:14.70]
11. High Hopes [0:08:32.25]
[свернуть]

youtube.com

[свернуть]

Исполнители/Performers

Pink Floyd
David Gilmour – lead vocals, acoustic, electric, classical & steel guitars, bass guitar ("Poles Apart", "Wearing the Inside Out", "Lost for Words" and "High Hopes"), keyboards, programming, talk box, production, mixing
Nick Mason – drums, percussion, Church Bell
Richard Wright – keyboards, piano, lead vocals ("Wearing the Inside Out") and backing vocals ("What Do You Want from Me")

Additional musicians
Jon Carin – programming, piano, additional keyboards
Guy Pratt – bass guitar
Gary Wallis – percussion
Tim Renwick – guitars
Dick Parry – tenor saxophone
Bob Ezrin – keyboards, percussion
Carol Kenyon, Durga McBroom, Jackie Sheridan, Rebecca Leigh-White, Sam Brown – backing vocals
Stephen Hawking – vocal samples on "Keep Talking"
[свернуть]

EAC лог

Exact Audio Copy V1.3 from 2. September 2016

EAC extraction logfile from 29. June 2018, 23:01

Pink Floyd / The Division Bell

Used drive : ATAPI iHAS124 D Adapter: 0 ID: 2

Read mode : Secure
Utilize accurate stream : Yes
Defeat audio cache : Yes
Make use of C2 pointers : No

Read offset correction : 6
Overread into Lead-In and Lead-Out : No
Fill up missing offset samples with silence : Yes
Delete leading and trailing silent blocks : No
Null samples used in CRC calculations : Yes
Used interface : Installed external ASPI interface

Used output format : User Defined Encoder
Selected bitrate : 1024 kBit/s
Quality : High
Add ID3 tag : No
Command line compressor : C:\Program Files (x86)\Exact Audio Copy\Flac\flac.exe
Additional command line options : -6 -V -T "ARTIST=%artist%" -T "TITLE=%title%" -T "ALBUM=%albumtitle%" -T "DATE=%year%" -T "TRACKNUMBER=%tracknr%" -T "GENRE=%genre%" -T "COMMENT=%comment%" -T "BAND=%albuminterpret%" -T "ALBUMARTIST=%albuminterpret%" -T "COMPOSER=%composer%" %haslyrics%--tag-from-file=LYRICS="%lyricsfile%"%haslyrics% -T "DISCNUMBER=%cdnumber%" -T "TOTALDISCS=%totalcds%" -T "TOTALTRACKS=%numtracks%" %hascover%--picture="%coverfile%"%hascover% %source% -o %dest%


TOC of the extracted CD

Track | Start | Length | Start sector | End sector
---------------------------------------------------------
1 | 0:00.00 | 5:58.27 | 0 | 26876
2 | 5:58.27 | 4:21.48 | 26877 | 46499
3 | 10:20.00 | 7:04.05 | 46500 | 78304
4 | 17:24.05 | 5:29.45 | 78305 | 103024
5 | 22:53.50 | 4:17.47 | 103025 | 122346
6 | 27:11.22 | 6:49.38 | 122347 | 153059
7 | 34:00.60 | 6:12.30 | 153060 | 180989
8 | 40:13.15 | 6:19.32 | 180990 | 209446
9 | 46:32.47 | 6:11.08 | 209447 | 237279
10 | 52:43.55 | 5:14.70 | 237280 | 260899
11 | 57:58.50 | 8:32.25 | 260900 | 299324


Range status and errors

Selected range

Filename C:\mm\Pink Floyd\1994 - The Division Bell [CK 64200]\Pink Floyd - The Division Bell.wav

Peak level 100.0 %
Extraction speed 2.0 X
Range quality 99.9 %
Test CRC 7D67184C
Copy CRC 7D67184C
Copy OK

No errors occurred

End of status report

---- CUETools DB Plugin V2.1.6

[CTDB TOCID: XJaLToM4oq4mZlnCSBYdZ6oQGCc-] found
Submit result: XJaLToM4oq4mZlnCSBYdZ6oQGCc- has been confirmed
Track | CTDB Status
1 | (1244/1585) Accurately ripped
2 | (1255/1585) Accurately ripped
3 | (1250/1585) Accurately ripped
4 | (1250/1585) Accurately ripped
5 | (1246/1585) Accurately ripped
6 | (1242/1585) Accurately ripped
7 | (1248/1585) Accurately ripped
8 | (1242/1585) Accurately ripped
9 | (1235/1585) Accurately ripped
10 | (1242/1585) Accurately ripped
11 | (1212/1585) Accurately ripped
[свернуть]

Файл CUE

REM GENRE "Progressive Rock"
REM DATE 1994
REM DISCID 850F970B
REM COMMENT "ExactAudioCopy v1.3"
PERFORMER "Pink Floyd"
TITLE "The Division Bell"
REM COMPOSER ""
FILE "Pink Floyd - The Division Bell.flac" WAVE
TRACK 01 AUDIO
TITLE "Cluster One"
PERFORMER "Pink Floyd"
REM COMPOSER ""
INDEX 01 00:00:00
TRACK 02 AUDIO
TITLE "What Do You Want from Me"
PERFORMER "Pink Floyd"
REM COMPOSER ""
INDEX 00 05:58:25
INDEX 01 05:58:27
TRACK 03 AUDIO
TITLE "Poles Apart"
PERFORMER "Pink Floyd"
REM COMPOSER ""
INDEX 00 10:19:72
INDEX 01 10:20:00
TRACK 04 AUDIO
TITLE "Marooned"
PERFORMER "Pink Floyd"
REM COMPOSER ""
INDEX 00 17:24:02
INDEX 01 17:24:05
TRACK 05 AUDIO
TITLE "A Great Day for Freedom"
PERFORMER "Pink Floyd"
REM COMPOSER ""
INDEX 00 22:53:47
INDEX 01 22:53:50
TRACK 06 AUDIO
TITLE "Wearing the Inside Out"
PERFORMER "Pink Floyd"
REM COMPOSER ""
INDEX 00 27:10:50
INDEX 01 27:11:22
TRACK 07 AUDIO
TITLE "Take It Back"
PERFORMER "Pink Floyd"
REM COMPOSER ""
INDEX 00 33:59:72
INDEX 01 34:00:60
TRACK 08 AUDIO
TITLE "Coming Back to Life"
PERFORMER "Pink Floyd"
REM COMPOSER ""
INDEX 00 40:13:12
INDEX 01 40:13:15
TRACK 09 AUDIO
TITLE "Keep Talking"
PERFORMER "Pink Floyd"
REM COMPOSER ""
INDEX 00 46:32:45
INDEX 01 46:32:47
TRACK 10 AUDIO
TITLE "Lost for Words"
PERFORMER "Pink Floyd"
REM COMPOSER ""
INDEX 00 52:42:15
INDEX 01 52:43:55
TRACK 11 AUDIO
TITLE "High Hopes"
PERFORMER "Pink Floyd"
REM COMPOSER ""
INDEX 00 57:58:47
INDEX 01 57:58:50
[свернуть]

Лог проверки качества

AUDIOCHECKER v2.0 beta (build 457) - by Dester - [Ссылки могут видеть только зарегистрированные и активированные пользователи.]
[Only registered and activated users can see links.]
~~~~~~~~~~~~~~~~~~~~~~~~~~~~~~~~~~
-=== НЕ РЕДАКТИРУЙТЕ ЭТОТ ФАЙЛ! ===-

Путь: ...\1994 - The Division Bell [CK 64200]

1 -=- Pink Floyd - The Division Bell.flac -=- CDDA (99%)

139432516
[свернуть]

Спектр частот

[свернуть]

Скачать Pink Floyd - The Division Bell

[Ссылки могут видеть только зарегистрированные и активированные пользователи.]
[Only registered and activated users can see links.]

password: sergych
[свернуть]

Контрольная сумма (хеш-сумма) архива

MD5: 5cca556af8fc2712300de2eef0bbc6ab
[свернуть]
My opinion of release: 10/10

Release info RInfo

Второй альбом Pink Floyd, записанный без основателя Роджера Уотерса, The Division Bell был написан в основном гитаристом и певцом Дэвидом Гилмором и клавишником Риком Райтом.
__________________
TAIFUN.Wings of Soul

Вверх
3 пользователя(ей) сказали cпасибо:
Показать список поблагодаривших
Похожие темы
Тема Автор Раздел Ответов Последнее сообщение
VA VA - The Other Side of Pink. A Tribute To Pink Floyd sergych Psychedelic Rock 1 30.06.2014 13:00
Сборник Pink Floyd - Echoes. The Best of Pink Floyd sergych Psychedelic Rock 0 17.03.2013 11:54
Альбом Pink Floyd - More TAIFUN Psychedelic Rock 0 20.11.2012 18:58
VA Pink Floyd Tribute Band - A Chill Out Tribute To Pink Floyd sergych Chill Out 0 06.12.2008 18:23
Live Pink Floyd - KQED "An Hour With Pink Floyd" sergych Psychedelic Rock 0 05.10.2008 10:46


Метки
1994 , pink floyd , progressive rock , psychedelic , rock , рок

Опции темы

Ваши права в разделе
Вы не можете создавать новые темы
Вы не можете отвечать в темах
Вы не можете прикреплять вложения
Вы не можете редактировать свои сообщения

Быстрый переход



Текущее время: 12:04. Часовой пояс GMT +3.
Powered by vBulletin® Version 3.8.10
Copyright ©2000 - 2018, vBulletin Solutions, Inc. Перевод: zCarot
© 2008 - 2018 Taifun With Song
Яндекс.Метрика