TAIFUN With Song
Навигация
Вернуться   TAIFUN With Song > Music (обменник) > Rock > Pop Rock
Расширенный поиск
Pop Rock Поп-рок — жанр музыки, объединяющий элементы поп-музыки и рок-музыки. Песни характеризуются простой структурой, запоминающимися мелодиями, повторением музыкальных фраз (от попа), использованием в качестве основных инструментов электрогитар и ударных и агрессивным настроением (от рока).

А знаете ли Вы, что...
Хобби Альберта Эйнштейна!
«Эйнштейн любил играть на скрипке и однажды принял участие в благотворительном концерте в Германии.»
 
Опции темы

  #1
Старый 23.06.2018, 16:06
sergych
Координатор
Досье
 
Аватар для sergych
Релиз Lindsey Buckingham & Christine McVie


2017 - Lindsey Buckingham & Christine McVie




Исполнитель/Artist: Lindsey Buckingham & Christine McVie
Альбом/Album: Lindsey Buckingham & Christine McVie
Год/Year: 2017
Жанр/Genre: pop rock, rock
Страна/Country: Германия
Рекорд-лейбл/Record label: East West Records
Номер в каталоге/Catalogue #: 0190295828318
Формат/Format: Free Lossless Audio Codec (*.flac)
Качество/Quality: Lossless
Тип рипа/RIP Type: image+.cue
Продолжительность/Length: 00:39:39
Источник/Source: Собственный рип
Размер/Size: 340.4 MB

Сканы в комплекте

Треклист

01. Sleeping Around the Corner [0:03:47.71]
02. Feel about You [0:03:27.57]
03. In My World [0:04:24.54]
04. Red Sun [0:03:15.22]
05. Love Is Here to Stay [0:04:25.13]
06. Too Far Gone [0:03:20.60]
07. Lay Down for Free [0:03:56.27]
08. Game of Pretend [0:04:33.73]
09. On with the Show [0:03:46.62]
10. Carnival Begin [0:04:40.04]
[свернуть]

youtube.com

[свернуть]

Исполнители/Performers

Lindsey Buckingham – guitars, keyboards, bass guitar, drums, percussion, vocals
Christine McVie – keyboards, organ, piano, rhodes, vocals

Additional personnel:
Mick Fleetwood – drums, percussion
John McVie – bass guitar
Mitchell Froom – keyboards
[свернуть]

EAC лог

Exact Audio Copy V1.3 from 2. September 2016

EAC extraction logfile from 23. June 2018, 8:52

Lindsey Buckingham & Christine McVie / Lindsey Buckingham & Christine McVie

Used drive : ATAPI iHAS124 D Adapter: 0 ID: 2

Read mode : Secure
Utilize accurate stream : Yes
Defeat audio cache : Yes
Make use of C2 pointers : No

Read offset correction : 6
Overread into Lead-In and Lead-Out : No
Fill up missing offset samples with silence : Yes
Delete leading and trailing silent blocks : No
Null samples used in CRC calculations : Yes
Used interface : Installed external ASPI interface

Used output format : User Defined Encoder
Selected bitrate : 1024 kBit/s
Quality : High
Add ID3 tag : No
Command line compressor : C:\Program Files (x86)\Exact Audio Copy\Flac\flac.exe
Additional command line options : -6 -V -T "ARTIST=%artist%" -T "TITLE=%title%" -T "ALBUM=%albumtitle%" -T "DATE=%year%" -T "TRACKNUMBER=%tracknr%" -T "GENRE=%genre%" -T "COMMENT=%comment%" -T "BAND=%albuminterpret%" -T "ALBUMARTIST=%albuminterpret%" -T "COMPOSER=%composer%" %haslyrics%--tag-from-file=LYRICS="%lyricsfile%"%haslyrics% -T "DISCNUMBER=%cdnumber%" -T "TOTALDISCS=%totalcds%" -T "TOTALTRACKS=%numtracks%" %hascover%--picture="%coverfile%"%hascover% %source% -o %dest%


TOC of the extracted CD

Track | Start | Length | Start sector | End sector
---------------------------------------------------------
1 | 0:00.00 | 3:47.71 | 0 | 17095
2 | 3:47.71 | 3:27.57 | 17096 | 32677
3 | 7:15.53 | 4:24.54 | 32678 | 52531
4 | 11:40.32 | 3:15.22 | 52532 | 67178
5 | 14:55.54 | 4:25.13 | 67179 | 87066
6 | 19:20.67 | 3:20.60 | 87067 | 102126
7 | 22:41.52 | 3:56.27 | 102127 | 119853
8 | 26:38.04 | 4:33.73 | 119854 | 140401
9 | 31:12.02 | 3:46.62 | 140402 | 157413
10 | 34:58.64 | 4:40.04 | 157414 | 178417


Range status and errors

Selected range

Filename C:\mm\Fleetwood Mac\Solo\Lindsey Buckingham & Christine McVie\2017 - Lindsey Buckingham & Christine McVie [0190295828318]\Lindsey Buckingham & Christine McVie.wav

Peak level 100.0 %
Extraction speed 1.6 X
Range quality 100.0 %
Test CRC 89E6E664
Copy CRC 89E6E664
Copy OK

No errors occurred

End of status report

---- CUETools DB Plugin V2.1.6

[CTDB TOCID: ugb7rAhJb3jC4.3fM1XSHz7yiuU-] found
Submit result: ugb7rAhJb3jC4.3fM1XSHz7yiuU- has been confirmed
Track | CTDB Status
1 | (490/491) Accurately ripped
2 | (491/491) Accurately ripped
3 | (491/491) Accurately ripped
4 | (491/491) Accurately ripped
5 | (491/491) Accurately ripped
6 | (490/491) Accurately ripped
7 | (490/491) Accurately ripped
8 | (490/491) Accurately ripped
9 | (489/491) Accurately ripped
10 | (488/491) Accurately ripped
[свернуть]

Файл CUE

REM GENRE Rock
REM DATE 2017
REM DISCID 73094A0A
REM COMMENT "ExactAudioCopy v1.3"
PERFORMER "Lindsey Buckingham & Christine McVie"
TITLE "Lindsey Buckingham & Christine McVie"
REM COMPOSER ""
FILE "Lindsey Buckingham & Christine McVie.flac" WAVE
TRACK 01 AUDIO
TITLE "Sleeping Around the Corner"
PERFORMER "Lindsey Buckingham & Christine McVie"
REM COMPOSER ""
INDEX 01 00:00:00
TRACK 02 AUDIO
TITLE "Feel about You"
PERFORMER "Lindsey Buckingham & Christine McVie"
REM COMPOSER ""
INDEX 01 03:47:71
TRACK 03 AUDIO
TITLE "In My World"
PERFORMER "Lindsey Buckingham & Christine McVie"
REM COMPOSER ""
INDEX 01 07:15:53
TRACK 04 AUDIO
TITLE "Red Sun"
PERFORMER "Lindsey Buckingham & Christine McVie"
REM COMPOSER ""
INDEX 01 11:40:32
TRACK 05 AUDIO
TITLE "Love Is Here to Stay"
PERFORMER "Lindsey Buckingham & Christine McVie"
REM COMPOSER ""
INDEX 01 14:55:54
TRACK 06 AUDIO
TITLE "Too Far Gone"
PERFORMER "Lindsey Buckingham & Christine McVie"
REM COMPOSER ""
INDEX 01 19:20:67
TRACK 07 AUDIO
TITLE "Lay Down for Free"
PERFORMER "Lindsey Buckingham & Christine McVie"
REM COMPOSER ""
INDEX 01 22:41:52
TRACK 08 AUDIO
TITLE "Game of Pretend"
PERFORMER "Lindsey Buckingham & Christine McVie"
REM COMPOSER ""
INDEX 01 26:38:04
TRACK 09 AUDIO
TITLE "On with the Show"
PERFORMER "Lindsey Buckingham & Christine McVie"
REM COMPOSER ""
INDEX 01 31:12:02
TRACK 10 AUDIO
TITLE "Carnival Begin"
PERFORMER "Lindsey Buckingham & Christine McVie"
REM COMPOSER ""
INDEX 01 34:58:64
[свернуть]

Лог проверки качества

AUDIOCHECKER v2.0 beta (build 457) - by Dester -
~~~~~~~~~~~~~~~~~~~~~~~~~~~~~~~~~~
-=== НЕ РЕДАКТИРУЙТЕ ЭТОТ ФАЙЛ! ===-

Путь: ...\2017 - Lindsey Buckingham & Christine McVie [0190295828318]

1 -=- Lindsey Buckingham & Christine McVie.flac -=- CDDA (100%)

60097924
[свернуть]

Спектр частот

[свернуть]

Скачать Lindsey Buckingham & Christine McVie



password: sergych
[свернуть]

Контрольная сумма (хеш-сумма) архива

MD5: 2dd8fd25aa2714919173b5a20b2ed319
[свернуть]
My opinion of release: 10/10

Release info RInfo

Студийный альбомом вокалистов группы Fleetwood Mac Lindsey Buckingham и Christine McVie, выпущенный 9 июня 2017 года. Четыре из пяти членов Fleetwood Mac участвовали в записи альбома; вокалистка Stevie Nicks - единственная, не принимавшая участие в проекте. В первую неделю было продано свыше 22 тысяч альбомов только в США, что позволило ему дебютировать в топ-20. Еще больший успех альбом получил в Великобритании, где он вошёл в топ-5.
__________________
TAIFUN.Wings of Soul

Вверх
3 пользователя(ей) сказали cпасибо:
Показать список поблагодаривших
Похожие темы
Тема Автор Раздел Ответов Последнее сообщение
Альбом Lindsey Buckingham - Out Of The Cradle sergych Pop Rock 0 03.09.2017 00:47
Альбом Lindsey Buckingham - Seeds We Sow sergych Pop Rock 0 04.04.2016 21:35
Альбом Christine McVie - In The Meantime sergych Soft Rock 0 20.04.2015 18:57
Альбом Christine McVie - Christine McVie sergych Soft Rock 0 11.04.2015 10:23
Релиз Celeste Buckingham - Where I Belong PUPOKIN Зарубежная Поп-Музыка 0 12.12.2013 08:49


Метки
2017 , christine mcvie , lindsey buckingham , lindsey buckingham & christine mcvie , pop rock , rock

Опции темы

Ваши права в разделе
Вы не можете создавать новые темы
Вы не можете отвечать в темах
Вы не можете прикреплять вложения
Вы не можете редактировать свои сообщения

Быстрый переход



Текущее время: 03:59. Часовой пояс GMT +3.
Powered by vBulletin® Version 3.8.10
Copyright ©2000 - 2018, vBulletin Solutions, Inc. Перевод: zCarot
© 2008 - 2018 Taifun With Song
Яндекс.Метрика