TAIFUN With Song
Навигация
Вернуться   TAIFUN With Song > Music (обменник) > Другие направления музыки > Jazz и Blues
Расширенный поиск
Jazz и Blues Гибкая ритмика, импровизационное начало, гармонии и мелодии - все это Jazz. Blues - жизнеутверждающая музыка, рожденная из душевной боли

А знаете ли Вы, что...
Какой русский поп-певец имеет самую большую армию поклонников?
«Витас — самый популярный современный русский исполнитель в Китае, что ставит его на первое место среди всех русских исполнителей по общему числу поклонников в мире.»
 
Опции темы

  #1
Старый 07.02.2016, 22:32
sergych
Координатор
Досье
 
Аватар для sergych
Релиз Lionel Hampton & Oscar Peterson {Jazz Masters 26}


1994 - Lionel Hampton & Oscar Peterson {Jazz Masters 26}




Исполнитель/Artist: Lionel Hampton & Oscar Peterson
Альбом/Album: Jazz Masters 26
Год/Year: 1994
Жанр/Genre: Jazz, Swing
Страна/Country: Соединённые Штаты
Рекорд-лейбл/Record label: PolyGram Records / Verve
Номер в каталоге/Catalogue #: 314 521 853-2
Формат/Format: Free Lossless Audio Codec (*.flac)
Качество/Quality: Lossless
Тип рипа/RIP Type: image+.cue
Продолжительность/Length: 01:05:22
Источник/Source: Собственный рип
Размер/Size: 325.9 MB

Сканы в комплекте

Треклист

01. Jam Blues (excerpt) [0:04:46.48]
02. Always [0:08:01.60]
03. Soft Winds [0:06:13.55]
04. Star Dust [0:09:58.20]
05. Je Ne Sais Pas [0:06:33.05]
06. Tenderly [0:10:14.27]
07. Hallelujah! [0:06:23.48]
08. Sweethearts on Parade [0:07:12.27]
09. Date with Oscar [0:05:57.23]
[свернуть]

youtube.com

[свернуть]

EAC лог

Exact Audio Copy V1.1 from 23. June 2015

EAC extraction logfile from 26. January 2016, 2:10

Lionel Hampton & Oscar Peterson / Jazz Masters 26

Used drive : ATAPI iHAS124 D Adapter: 0 ID: 2

Read mode : Secure
Utilize accurate stream : Yes
Defeat audio cache : Yes
Make use of C2 pointers : No

Read offset correction : 6
Overread into Lead-In and Lead-Out : No
Fill up missing offset samples with silence : Yes
Delete leading and trailing silent blocks : No
Null samples used in CRC calculations : Yes
Used interface : Installed external ASPI interface

Used output format : User Defined Encoder
Selected bitrate : 1024 kBit/s
Quality : High
Add ID3 tag : Yes
Command line compressor : C:\Program Files (x86)\Exact Audio Copy\Flac\flac.exe
Additional command line options : -6 -V -T "ARTIST=%artist%" -T "TITLE=%title%" -T "ALBUM=%albumtitle%" -T "DATE=%year%" -T "TRACKNUMBER=%tracknr%" -T "GENRE=%genre%" -T "COMMENT=%comment%" -T "BAND=%albuminterpret%" -T "COMPOSER=%composer%" %haslyrics%--tag-from-file=LYRICS="%lyricsfile%"%haslyrics% -T "DISCNUMBER=%cdnumber%" -T "TOTALDISCS=%totalcds%" -T "TOTALTRACKS=%numtracks%" %hascover%--picture="%coverfile%"%hascover% %source% -o %dest%


TOC of the extracted CD

Track | Start | Length | Start sector | End sector
---------------------------------------------------------
1 | 0:00.00 | 4:46.48 | 0 | 21497
2 | 4:46.48 | 8:01.60 | 21498 | 57632
3 | 12:48.33 | 6:13.55 | 57633 | 85662
4 | 19:02.13 | 9:58.20 | 85663 | 130532
5 | 29:00.33 | 6:33.05 | 130533 | 160012
6 | 35:33.38 | 10:14.27 | 160013 | 206089
7 | 45:47.65 | 6:23.48 | 206090 | 234862
8 | 52:11.38 | 7:12.27 | 234863 | 267289
9 | 59:23.65 | 5:57.23 | 267290 | 294087


Range status and errors

Selected range

Filename C:\mm\Oscar Peterson\1994 - Lionel Hampton with Oscar Peterson {Jazz Masters 26} [314 521 853-2]\Lionel Hampton & Oscar Peterson - Jazz Masters 26.wav

Peak level 100.0 %
Extraction speed 10.1 X
Range quality 100.0 %
Test CRC 59406831
Copy CRC 59406831
Copy OK

No errors occurred


AccurateRip summary

Track 1 accurately ripped (confidence 4) [C9F39AB3] (AR v2)
Track 2 accurately ripped (confidence 4) [DD8BC87C] (AR v2)
Track 3 accurately ripped (confidence 4) [EA437D99] (AR v2)
Track 4 accurately ripped (confidence 4) [4147AF19] (AR v2)
Track 5 accurately ripped (confidence 4) [D9DB1357] (AR v2)
Track 6 accurately ripped (confidence 4) [D107C7E8] (AR v2)
Track 7 accurately ripped (confidence 4) [FCA9E09D] (AR v2)
Track 8 accurately ripped (confidence 4) [F144FB9C] (AR v2)
Track 9 accurately ripped (confidence 4) [D8E3FA19] (AR v2)

All tracks accurately ripped

End of status report
[свернуть]

Файл CUE

REM GENRE Jazz
REM DATE 1994
REM DISCID 780F5109
REM COMMENT "ExactAudioCopy v1.1"
PERFORMER "Lionel Hampton & Oscar Peterson"
TITLE "Jazz Masters 26"
FILE "Lionel Hampton & Oscar Peterson - Jazz Masters 26.flac" WAVE
TRACK 01 AUDIO
TITLE "Jam Blues (excerpt)"
PERFORMER "Lionel Hampton & Oscar Peterson"
INDEX 01 00:00:00
TRACK 02 AUDIO
TITLE "Always"
PERFORMER "Lionel Hampton & Oscar Peterson"
INDEX 00 04:43:35
INDEX 01 04:46:48
TRACK 03 AUDIO
TITLE "Soft Winds"
PERFORMER "Lionel Hampton & Oscar Peterson"
INDEX 00 12:45:45
INDEX 01 12:48:33
TRACK 04 AUDIO
TITLE "Star Dust"
PERFORMER "Lionel Hampton & Oscar Peterson"
INDEX 00 18:59:00
INDEX 01 19:02:13
TRACK 05 AUDIO
TITLE "Je Ne Sais Pas"
PERFORMER "Lionel Hampton & Oscar Peterson"
INDEX 00 28:57:20
INDEX 01 29:00:33
TRACK 06 AUDIO
TITLE "Tenderly"
PERFORMER "Lionel Hampton & Oscar Peterson"
INDEX 00 35:30:50
INDEX 01 35:33:38
TRACK 07 AUDIO
TITLE "Hallelujah!"
PERFORMER "Lionel Hampton & Oscar Peterson"
INDEX 00 45:44:53
INDEX 01 45:47:65
TRACK 08 AUDIO
TITLE "Sweethearts on Parade"
PERFORMER "Lionel Hampton & Oscar Peterson"
INDEX 00 52:08:50
INDEX 01 52:11:38
TRACK 09 AUDIO
TITLE "Date with Oscar"
PERFORMER "Lionel Hampton & Oscar Peterson"
INDEX 00 59:21:03
INDEX 01 59:23:65
[свернуть]

Лог проверки качества

AUDIOCHECKER v2.0 beta (build 457) - by Dester -
~~~~~~~~~~~~~~~~~~~~~~~~~~~~~~~~~~
-=== НЕ РЕДАКТИРУЙТЕ ЭТОТ ФАЙЛ! ===-

Путь: ...\1994 - Lionel Hampton with Oscar Peterson {Jazz Masters 26} [314 521 853-2]

1 -=- Lionel Hampton & Oscar Peterson - Jazz Masters 26.flac -=- CDDA (100%)

263179028
[свернуть]

Спектр частот

[свернуть]

Скачать Lionel Hampton & Oscar Peterson {Jazz Masters 26}



password: sergych
[свернуть]
My opinion of release: 10/10
__________________
TAIFUN.Wings of Soul

Вверх
Похожие темы
Тема Автор Раздел Ответов Последнее сообщение
Сборник Oscar Peterson - Supreme Jazz Collection sergych Jazz и Blues 1 05.07.2018 15:14
Live Oscar Peterson - Paris Jazz Concert sergych Jazz и Blues 0 29.09.2015 00:54
Сборник Oscar Peterson - Verve Jazz Masters 16. Oscar Peterson sergych Jazz и Blues 0 08.05.2015 21:00
Сборник Oscar Peterson - Jazz Manifesto sergych Jazz и Blues 0 28.03.2015 19:39


Метки
1994 , jazz , jazz masters 26 , lionel hampton , oscar peterson , swing

Опции темы

Ваши права в разделе
Вы не можете создавать новые темы
Вы не можете отвечать в темах
Вы не можете прикреплять вложения
Вы не можете редактировать свои сообщения

Быстрый переход



Текущее время: 13:22. Часовой пояс GMT +3.
Powered by vBulletin® Version 3.8.10
Copyright ©2000 - 2018, vBulletin Solutions, Inc. Перевод: zCarot
© 2008 - 2018 Taifun With Song
Яндекс.Метрика