TAIFUN With Song
Навигация
А знаете ли Вы, что...
Кто начал писать музыку в 5 лет?
«Вольфганг Амадей Моцарт начал сочинять музыку в 5 лет.»
 
Опции темы

  #1
Старый 22.03.2014, 21:12
sergych
Координатор
Досье
 
Аватар для sergych
Релиз Billy Ocean - Suddenly


1984 - Billy Ocean - Suddenly




Исполнитель/Artist: Billy Ocean
Альбом/Album: Suddenly
Год/Year: 1984
Жанр/Genre: Dance-pop, post-disco, soul, soft rock
Страна/Country: Япония
Рекорд-лейбл/Record label: CBS / Sony
Номер в каталоге/Catalogue #: 32DP 198
Формат/Format: Free Lossless Audio Codec (*.flac)
Качество/Quality: Lossless
Тип рипа/RIP Type: image+.cue
Продолжительность/Length: 00:41:53
Источник/Source: Собственный рип
Размер/Size: 268.3 MB

Сканы в комплекте

Треклист

01. Caribbean Queen (No More Love On The Run) [0:05:04.05]
02. Mystery Lady [0:05:02.30]
03. Syncopation [0:05:20.17]
04. The Long And Winding Road [0:04:42.28]
05. Loverboy [0:05:16.05]
06. Lucky Man [0:04:21.37]
07. Dancefloor [0:04:14.05]
08. If I Should Lose You [0:03:59.35]
09. Suddenly [0:03:53.60]
[свернуть]

youtube.com

[свернуть]

Исполнители/Performers

Simmons and Linn drums: Billy Ocean
Drums on tracks 4 and 9: Terry Silverlight
Percussion: Tony Maroni, Andy Newton
Bass: Timmy Allen
Synth Bass: Keith Diamond
Keyboards, Synthesizer: Barry J. Eastmond
Guitar: Clarence "Binky" Brice, Eddie Martinez, Geoff Whitehorn, Vic Linton
Saxophone: Jeff Smith
Backing vocals: Cindy Myzelle, Chrissie Faith, Curtis King, Katie Kissoon, Lisa Fischer, Meekaeel M., Stevie Lange, Keith Diamond
String Arrangements By Barry Eastmond
[свернуть]

EAC лог

Exact Audio Copy V1.0 beta 3 from 29. August 2011

EAC extraction logfile from 22. March 2014, 23:46

Billy Ocean / Suddenly

Used drive : ATAPI iHAS124 D Adapter: 0 ID: 2

Read mode : Secure
Utilize accurate stream : Yes
Defeat audio cache : Yes
Make use of C2 pointers : No

Read offset correction : 6
Overread into Lead-In and Lead-Out : No
Fill up missing offset samples with silence : Yes
Delete leading and trailing silent blocks : No
Null samples used in CRC calculations : Yes
Used interface : Installed external ASPI interface

Used output format : User Defined Encoder
Selected bitrate : 1024 kBit/s
Quality : High
Add ID3 tag : No
Command line compressor : C:\Program Files (x86)\Exact Audio Copy\Flac\flac.exe
Additional command line options : -6 -V -T "ARTIST=%artist%" -T "TITLE=%title%" -T "ALBUM=%albumtitle%" -T "DATE=%year%" -T "TRACKNUMBER=%tracknr%" -T "GENRE=%genre%" -T "COMMENT=%comment%" -T "BAND=%albuminterpret%" -T "COMPOSER=%composer%" %haslyrics%--tag-from-file=LYRICS="%lyricsfile%"%haslyrics% -T "DISCNUMBER=%cdnumber%" -T "TOTALDISCS=%totalcds%" -T "TOTALTRACKS=%numtracks%" %hascover%--picture="%coverfile%"%hascover% %source% -o %dest%


TOC of the extracted CD

Track | Start | Length | Start sector | End sector
---------------------------------------------------------
1 | 0:00.00 | 5:04.05 | 0 | 22804
2 | 5:04.05 | 5:02.30 | 22805 | 45484
3 | 10:06.35 | 5:20.17 | 45485 | 69501
4 | 15:26.52 | 4:42.28 | 69502 | 90679
5 | 20:09.05 | 5:16.05 | 90680 | 114384
6 | 25:25.10 | 4:21.37 | 114385 | 133996
7 | 29:46.47 | 4:14.05 | 133997 | 153051
8 | 34:00.52 | 3:59.35 | 153052 | 171011
9 | 38:00.12 | 3:53.60 | 171012 | 188546


Range status and errors

Selected range

Filename C:\mm\Billy Ocean\1984 - Suddenly [32DP 198]\Billy Ocean - Suddenly.wav

Peak level 85.3 %
Extraction speed 8.2 X
Range quality 100.0 %
Test CRC AFF00A8B
Copy CRC AFF00A8B
Copy OK

No errors occurred


AccurateRip summary

Track 1 not present in database
Track 2 not present in database
Track 3 not present in database
Track 4 not present in database
Track 5 not present in database
Track 6 not present in database
Track 7 not present in database
Track 8 not present in database
Track 9 not present in database

None of the tracks are present in the AccurateRip database

End of status report
[свернуть]

Файл CUE

REM GENRE Pop
REM DATE 1984
REM DISCID 6E09D109
REM COMMENT "ExactAudioCopy v1.0b3"
PERFORMER "Billy Ocean"
TITLE "Suddenly"
FILE "Billy Ocean - Suddenly.flac" WAVE
TRACK 01 AUDIO
TITLE "Caribbean Queen (No More Love On The Run)"
PERFORMER "Billy Ocean"
INDEX 01 00:00:00
TRACK 02 AUDIO
TITLE "Mystery Lady"
PERFORMER "Billy Ocean"
INDEX 01 05:04:05
TRACK 03 AUDIO
TITLE "Syncopation"
PERFORMER "Billy Ocean"
INDEX 01 10:06:35
TRACK 04 AUDIO
TITLE "The Long And Winding Road"
PERFORMER "Billy Ocean"
INDEX 01 15:26:52
TRACK 05 AUDIO
TITLE "Loverboy"
PERFORMER "Billy Ocean"
INDEX 00 20:07:05
INDEX 01 20:09:05
TRACK 06 AUDIO
TITLE "Lucky Man"
PERFORMER "Billy Ocean"
INDEX 01 25:25:10
TRACK 07 AUDIO
TITLE "Dancefloor"
PERFORMER "Billy Ocean"
INDEX 01 29:46:47
TRACK 08 AUDIO
TITLE "If I Should Lose You"
PERFORMER "Billy Ocean"
INDEX 01 34:00:52
TRACK 09 AUDIO
TITLE "Suddenly"
PERFORMER "Billy Ocean"
INDEX 01 38:00:12
[свернуть]

Лог проверки качества

AUDIOCHECKER v2.0 beta (build 457) - by Dester -
~~~~~~~~~~~~~~~~~~~~~~~~~~~~~~~~~~
-=== НЕ РЕДАКТИРУЙТЕ ЭТОТ ФАЙЛ! ===-

Путь: ...\1984 - Suddenly [32DP 198]

1 -=- Billy Ocean - Suddenly.flac -=- CDDA (100%)

95962980
[свернуть]

Спектр частот

[свернуть]

Скачать Billy Ocean - Suddenly



password: sergych
[свернуть]
My opinion of release: 10/10
__________________
TAIFUN.Wings of Soul

Вверх
Похожие темы
Тема Автор Раздел Ответов Последнее сообщение
Альбом Billy Ocean - Time To Move On sergych Зарубежная Поп-Музыка 0 17.01.2014 19:49
Альбом Billy McLaughlin - Acoustic Original (The Best Of Billy McLaughlin) fly123 New age 0 28.09.2011 16:46
Сборник Billy Ocean - Ultimate Collection PUPOKIN Disco 0 15.08.2011 09:02
Альбом Billy Ocean - The Very Best Of PUPOKIN R&B 0 02.07.2010 08:57
Arash & Rebecca - Suddenly (2008) PUPOKIN Видеоклипы 0 07.09.2008 13:16


Метки
1984 , billy ocean , dance-pop , post-disco , soft rock , soul , suddenly

Опции темы

Ваши права в разделе
Вы не можете создавать новые темы
Вы не можете отвечать в темах
Вы не можете прикреплять вложения
Вы не можете редактировать свои сообщения

Быстрый переход



Текущее время: 18:03. Часовой пояс GMT +3.
Powered by vBulletin® Version 3.8.10
Copyright ©2000 - 2018, vBulletin Solutions, Inc. Перевод: zCarot
© 2008 - 2018 Taifun With Song
Яндекс.Метрика