TAIFUN With Song
Навигация
Вернуться   TAIFUN With Song > Music (обменник) > POP > Зарубежная Поп-Музыка
Расширенный поиск
А знаете ли Вы, что...
Кто написал песню «Во поле берёза стояла»?
«Многие источники утверждают, что песню «Во поле берёза стояла» написал татарский поэт Нигмат Ибрагимов. Однако эта песня всё-таки является русской народной.»
 
Опции темы

  #1
Старый 17.01.2014, 20:49
sergych
Координатор
Досье
 
Аватар для sergych
Релиз Billy Ocean - Time To Move On


1993 - Billy Ocean - Time To Move On




Исполнитель/Artist: Billy Ocean
Альбом/Album: Time To Move On
Год/Year: 1993
Жанр/Genre: Pop, soul, R&B, electronic
Страна/Country: Соединённые Штаты
Рекорд-лейбл/Record label: Zomba Recordings
Номер в каталоге/Catalogue #: 01241-41488-2
Формат/Format: Free Lossless Audio Codec (*.flac)
Качество/Quality: Lossless
Тип рипа/RIP Type: image+.cue
Продолжительность/Length: 00:55:31
Источник/Source: Собственный рип
Размер/Size: 429.8 MB

Сканы в комплекте

Треклист

01. Pick Up The Pieces (Put It Back) [0:04:34.15]
02. Pressure [0:04:43.02]
03. Upside Down [0:04:04.50]
04. Everyday Sunshine [0:05:12.68]
05. Stand Up Stand Up [0:03:55.32]
06. The World Wants To Dance [0:04:00.40]
07. Time To Move On [0:04:46.68]
08. Rose [0:05:24.62]
09. Can We Go 'Round Again [0:05:05.13]
10. Everything's So Different Without You [0:04:20.20]
11. I'll Be There For You [0:04:29.00]
12. On Your Knees [0:04:54.60]
[свернуть]

youtube.com

[свернуть]

EAC лог

Exact Audio Copy V1.0 beta 3 from 29. August 2011

EAC extraction logfile from 17. January 2014, 22:49

Billy Ocean / Time To Move On

Used drive : ATAPI iHAS124 D Adapter: 0 ID: 2

Read mode : Secure
Utilize accurate stream : Yes
Defeat audio cache : Yes
Make use of C2 pointers : Yes

Read offset correction : 6
Overread into Lead-In and Lead-Out : No
Fill up missing offset samples with silence : Yes
Delete leading and trailing silent blocks : No
Null samples used in CRC calculations : Yes
Used interface : Installed external ASPI interface

Used output format : User Defined Encoder
Selected bitrate : 1024 kBit/s
Quality : High
Add ID3 tag : No
Command line compressor : C:\Program Files (x86)\Exact Audio Copy\Flac\flac.exe
Additional command line options : -6 -V -T "ARTIST=%artist%" -T "TITLE=%title%" -T "ALBUM=%albumtitle%" -T "DATE=%year%" -T "TRACKNUMBER=%tracknr%" -T "GENRE=%genre%" -T "COMMENT=%comment%" -T "BAND=%albuminterpret%" -T "COMPOSER=%composer%" %haslyrics%--tag-from-file=LYRICS="%lyricsfile%"%haslyrics% -T "DISCNUMBER=%cdnumber%" -T "TOTALDISCS=%totalcds%" -T "TOTALTRACKS=%numtracks%" %hascover%--picture="%coverfile%"%hascover% %source% -o %dest%


TOC of the extracted CD

Track | Start | Length | Start sector | End sector
---------------------------------------------------------
1 | 0:00.00 | 4:34.15 | 0 | 20564
2 | 4:34.15 | 4:43.02 | 20565 | 41791
3 | 9:17.17 | 4:04.50 | 41792 | 60141
4 | 13:21.67 | 5:12.68 | 60142 | 83609
5 | 18:34.60 | 3:55.32 | 83610 | 101266
6 | 22:30.17 | 4:00.40 | 101267 | 119306
7 | 26:30.57 | 4:46.68 | 119307 | 140824
8 | 31:17.50 | 5:24.62 | 140825 | 165186
9 | 36:42.37 | 5:05.13 | 165187 | 188074
10 | 41:47.50 | 4:20.20 | 188075 | 207594
11 | 46:07.70 | 4:29.00 | 207595 | 227769
12 | 50:36.70 | 4:54.60 | 227770 | 249879


Range status and errors

Selected range

Filename C:\mm\Billy Ocean\1993 - Time To Move On [01241-41488-2]\Billy Ocean - Time To Move On.wav

Peak level 97.7 %
Extraction speed 13.3 X
Range quality 100.0 %
Test CRC EDC470E3
Copy CRC EDC470E3
Copy OK

No errors occurred


AccurateRip summary

Track 1 accurately ripped (confidence 1) [FADE207A] (AR v2)
Track 2 accurately ripped (confidence 1) [A9491394] (AR v2)
Track 3 accurately ripped (confidence 1) [940C8115] (AR v2)
Track 4 accurately ripped (confidence 1) [9F0CC8BA] (AR v2)
Track 5 accurately ripped (confidence 1) [D6BDF4B9] (AR v2)
Track 6 accurately ripped (confidence 1) [543FA802] (AR v2)
Track 7 accurately ripped (confidence 1) [7A4D5A2F] (AR v2)
Track 8 accurately ripped (confidence 1) [3E2791D2] (AR v2)
Track 9 accurately ripped (confidence 1) [0DF55854] (AR v2)
Track 10 accurately ripped (confidence 1) [993098BA] (AR v2)
Track 11 accurately ripped (confidence 1) [73D4BCD7] (AR v2)
Track 12 accurately ripped (confidence 1) [E8C0490B] (AR v2)

All tracks accurately ripped

End of status report
[свернуть]

Файл CUE

REM GENRE Rock
REM DATE 1993
REM DISCID AB0D030C
REM COMMENT "ExactAudioCopy v1.0b3"
PERFORMER "Billy Ocean"
TITLE "Time To Move On"
FILE "Billy Ocean - Time To Move On.flac" WAVE
TRACK 01 AUDIO
TITLE "Pick Up The Pieces (Put It Back)"
PERFORMER "Billy Ocean"
INDEX 01 00:00:00
TRACK 02 AUDIO
TITLE "Pressure"
PERFORMER "Billy Ocean"
INDEX 00 04:33:42
INDEX 01 04:34:15
TRACK 03 AUDIO
TITLE "Upside Down"
PERFORMER "Billy Ocean"
INDEX 01 09:17:17
TRACK 04 AUDIO
TITLE "Everyday Sunshine"
PERFORMER "Billy Ocean"
INDEX 00 13:21:22
INDEX 01 13:21:67
TRACK 05 AUDIO
TITLE "Stand Up Stand Up"
PERFORMER "Billy Ocean"
INDEX 00 18:34:10
INDEX 01 18:34:60
TRACK 06 AUDIO
TITLE "The World Wants To Dance"
PERFORMER "Billy Ocean"
INDEX 00 22:28:47
INDEX 01 22:30:17
TRACK 07 AUDIO
TITLE "Time To Move On"
PERFORMER "Billy Ocean"
INDEX 00 26:29:10
INDEX 01 26:30:57
TRACK 08 AUDIO
TITLE "Rose"
PERFORMER "Billy Ocean"
INDEX 00 31:17:05
INDEX 01 31:17:50
TRACK 09 AUDIO
TITLE "Can We Go 'Round Again"
PERFORMER "Billy Ocean"
INDEX 01 36:42:37
TRACK 10 AUDIO
TITLE "Everything's So Different Without You"
PERFORMER "Billy Ocean"
INDEX 00 41:47:02
INDEX 01 41:47:50
TRACK 11 AUDIO
TITLE "I'll Be There For You"
PERFORMER "Billy Ocean"
INDEX 00 46:07:22
INDEX 01 46:07:70
TRACK 12 AUDIO
TITLE "On Your Knees"
PERFORMER "Billy Ocean"
INDEX 00 50:36:17
INDEX 01 50:36:70
[свернуть]

Лог проверки качества

AUDIOCHECKER v2.0 beta (build 457) - by Dester -
~~~~~~~~~~~~~~~~~~~~~~~~~~~~~~~~~~
-=== НЕ РЕДАКТИРУЙТЕ ЭТОТ ФАЙЛ! ===-

Путь: ...\1993 - Time To Move On [01241-41488-2]

1 -=- Billy Ocean - Time To Move On.flac -=- CDDA (99%)

91309732
[свернуть]

Спектр частот

[свернуть]

Скачать Billy Ocean - Time To Move On



password: sergych
[свернуть]
My opinion of release: 9/10
__________________
TAIFUN.Wings of Soul

Вверх
Пользователь сказал cпасибо:
Chert (19.08.2014)
Похожие темы
Тема Автор Раздел Ответов Последнее сообщение
Альбом Billy McLaughlin - Acoustic Original (The Best Of Billy McLaughlin) fly123 New age 0 28.09.2011 17:46
Сборник Billy Ocean - Ultimate Collection PUPOKIN Disco 0 15.08.2011 10:02
Релиз The Cars - Move Like This PUPOKIN Indie Rock 0 06.05.2011 09:36
Альбом Billy Ocean - The Very Best Of PUPOKIN R&B 0 02.07.2010 09:57
Сборник Now Move The Senses PUPOKIN House 0 23.06.2009 11:54


Метки
1993 , billy ocean , electronic , pop , r&b , soul , time to move on

Опции темы

Ваши права в разделе
Вы не можете создавать новые темы
Вы не можете отвечать в темах
Вы не можете прикреплять вложения
Вы не можете редактировать свои сообщения

Быстрый переход



Текущее время: 18:59. Часовой пояс GMT +3.
Powered by vBulletin® Version 3.8.10
Copyright ©2000 - 2018, vBulletin Solutions, Inc. Перевод: zCarot
© 2008 - 2018 Taifun With Song
Яндекс.Метрика