TAIFUN With Song
Навигация
Jazz и Blues Гибкая ритмика, импровизационное начало, гармонии и мелодии - все это Jazz. Blues - жизнеутверждающая музыка, рожденная из душевной боли

А знаете ли Вы, что...
Для прослушивания какого альбома нужно иметь четыре аудиосистемы?
«Восьмой студийный альбом альтернативной группы The Flaming Lips под названием Zaireeka был выпущен на 4 CD. Особенность альбома в том, что каждая композиция разделена на четыре составляющих, и для того чтобы прослушать песни в полной версии, нужно включить одновременно все диски на четырёх разных аудиосистемах. Слушатели также могут экспериментировать, проигрывая не все диски сразу, а в любой комбинации из двух или трёх штук.»
 
Опции темы

  #1
Старый 03.04.2013, 14:55
sergych
Координатор
Досье
 
Аватар для sergych
Релиз Oscar Peterson - Standards


2010 - Oscar Peterson - Standards




Исполнитель/Artist: Oscar Peterson
Альбом/Album: Standards
Год/Year: 2010
Жанр/Genre: jazz, swing
Страна/Country: Германия
Рекорд-лейбл/Record label: Verve Music
Номер в каталоге/Catalogue #: 2731066
Формат/Format: Free Lossless Audio Codec (*.flac)
Качество/Quality: Lossless
Тип рипа/RIP Type: image+.cue
Продолжительность/Length: 00:28:26
Источник/Source: Собственный рип
Размер/Size: 165.2 MB

Сканы в комплекте

Треклист

01. Cheek to Cheek [0:03:02.06]
02. It Ain't Necessarily So [0:03:13.05]
03. Fascinating Rhythm [0:02:57.31]
04. I Only Have Eyes For You [0:04:09.08]
05. The Lady Is a Tramp [0:03:05.38]
06. That Old Black Magic [0:02:59.15]
07. Georgia On My Mind [0:03:45.22]
08. Mack The Knife [0:05:14.23]
[свернуть]

youtube.com

[свернуть]

EAC лог

Exact Audio Copy V1.3 from 2. September 2016

EAC extraction logfile from 26. June 2018, 1:25

Oscar Peterson / Standards

Used drive : ATAPI iHAS124 D Adapter: 0 ID: 2

Read mode : Secure
Utilize accurate stream : Yes
Defeat audio cache : Yes
Make use of C2 pointers : No

Read offset correction : 6
Overread into Lead-In and Lead-Out : No
Fill up missing offset samples with silence : Yes
Delete leading and trailing silent blocks : No
Null samples used in CRC calculations : Yes
Used interface : Installed external ASPI interface

Used output format : User Defined Encoder
Selected bitrate : 1024 kBit/s
Quality : High
Add ID3 tag : No
Command line compressor : C:\Program Files (x86)\Exact Audio Copy\Flac\flac.exe
Additional command line options : -6 -V -T "ARTIST=%artist%" -T "TITLE=%title%" -T "ALBUM=%albumtitle%" -T "DATE=%year%" -T "TRACKNUMBER=%tracknr%" -T "GENRE=%genre%" -T "COMMENT=%comment%" -T "BAND=%albuminterpret%" -T "ALBUMARTIST=%albuminterpret%" -T "COMPOSER=%composer%" %haslyrics%--tag-from-file=LYRICS="%lyricsfile%"%haslyrics% -T "DISCNUMBER=%cdnumber%" -T "TOTALDISCS=%totalcds%" -T "TOTALTRACKS=%numtracks%" %hascover%--picture="%coverfile%"%hascover% %source% -o %dest%


TOC of the extracted CD

Track | Start | Length | Start sector | End sector
---------------------------------------------------------
1 | 0:00.00 | 3:02.06 | 0 | 13655
2 | 3:02.06 | 3:13.05 | 13656 | 28135
3 | 6:15.11 | 2:57.31 | 28136 | 41441
4 | 9:12.42 | 4:09.08 | 41442 | 60124
5 | 13:21.50 | 3:05.38 | 60125 | 74037
6 | 16:27.13 | 2:59.15 | 74038 | 87477
7 | 19:26.28 | 3:45.22 | 87478 | 104374
8 | 23:11.50 | 5:14.23 | 104375 | 127947


Range status and errors

Selected range

Filename C:\mm\Oscar Peterson\2010 - Standards [2731066]\Oscar Peterson - Standards.wav

Peak level 100.0 %
Extraction speed 1.5 X
Range quality 100.0 %
Test CRC 6571BC89
Copy CRC 6571BC89
Copy OK

No errors occurred

End of status report

---- CUETools DB Plugin V2.1.6

[CTDB TOCID: CjJ0YtV5Mlv3oIXEGpU74aE8yg4-] found
Submit result: CjJ0YtV5Mlv3oIXEGpU74aE8yg4- has been confirmed
Track | CTDB Status
1 | (4/4) Accurately ripped
2 | (4/4) Accurately ripped
3 | (4/4) Accurately ripped
4 | (4/4) Accurately ripped
5 | (4/4) Accurately ripped
6 | (4/4) Accurately ripped
7 | (4/4) Accurately ripped
8 | (4/4) Accurately ripped
[свернуть]

Файл CUE

REM GENRE Jazz
REM DATE 2010
REM DISCID 7306A908
REM COMMENT "ExactAudioCopy v1.3"
PERFORMER "Oscar Peterson"
TITLE "Standards"
REM COMPOSER ""
FILE "Oscar Peterson - Standards.flac" WAVE
TRACK 01 AUDIO
TITLE "Cheek to Cheek"
PERFORMER "Oscar Peterson"
REM COMPOSER ""
INDEX 01 00:00:00
TRACK 02 AUDIO
TITLE "It Ain't Necessarily So"
PERFORMER "Oscar Peterson"
REM COMPOSER ""
INDEX 00 03:00:37
INDEX 01 03:02:06
TRACK 03 AUDIO
TITLE "Fascinating Rhythm"
PERFORMER "Oscar Peterson"
REM COMPOSER ""
INDEX 00 06:13:42
INDEX 01 06:15:11
TRACK 04 AUDIO
TITLE "I Only Have Eyes For You"
PERFORMER "Oscar Peterson"
REM COMPOSER ""
INDEX 00 09:10:73
INDEX 01 09:12:42
TRACK 05 AUDIO
TITLE "The Lady Is a Tramp"
PERFORMER "Oscar Peterson"
REM COMPOSER ""
INDEX 00 13:20:06
INDEX 01 13:21:50
TRACK 06 AUDIO
TITLE "That Old Black Magic"
PERFORMER "Oscar Peterson"
REM COMPOSER ""
INDEX 00 16:25:44
INDEX 01 16:27:13
TRACK 07 AUDIO
TITLE "Georgia On My Mind"
PERFORMER "Oscar Peterson"
REM COMPOSER ""
INDEX 00 19:24:59
INDEX 01 19:26:28
TRACK 08 AUDIO
TITLE "Mack The Knife"
PERFORMER "Oscar Peterson"
REM COMPOSER ""
INDEX 00 23:10:06
INDEX 01 23:11:50
[свернуть]

Лог проверки качества

AUDIOCHECKER v2.0 beta (build 457) - by Dester -
~~~~~~~~~~~~~~~~~~~~~~~~~~~~~~~~~~
-=== НЕ РЕДАКТИРУЙТЕ ЭТОТ ФАЙЛ! ===-

Путь: ...\2010 - Standards [2731066]

1 -=- Oscar Peterson - Standards.flac -=- CDDA (100%)

180659508
[свернуть]

Спектр частот

[свернуть]

Скачать Oscar Peterson - Standards



password: sergych
[свернуть]

Контрольная сумма (хеш-сумма) архива

MD5: 5bd7c69b77084869d56fd56e2ec9a9c6
[свернуть]
My opinion of release: 10/10
__________________
TAIFUN.Wings of Soul


Последний раз редактировалось sergych, 26.06.2018 в 18:14. Причина: замена потрекового рипа образом
Вверх
2 пользователя(ей) сказали cпасибо:
johnsilver (27.06.2018), swint68 (28.06.2018)
  #2
Старый 26.06.2018, 18:15
sergych
Координатор
Досье
 
Аватар для sergych
По умолчанию Re: Oscar Peterson - Standards

заменил потрековый рип образом
__________________
TAIFUN.Wings of Soul

Вверх
2 пользователя(ей) сказали cпасибо:
johnsilver (27.06.2018), swint68 (28.06.2018)
Похожие темы
Тема Автор Раздел Ответов Последнее сообщение
Альбом Ben Webster & Oscar Peterson - Ben Webster Meets Oscar Peterson sergych Jazz и Blues 1 01.06.2018 17:07
Альбом Oscar Peterson - Oscar Peterson Plays Duke Ellington sergych Jazz и Blues 1 05.03.2015 20:44
Альбом Oscar Peterson - Oscar Peterson plays Porgy & Bess sergych Jazz и Blues 0 27.12.2008 06:28
Сборник Oscar Peterson - An Oscar Peterson Christmas sergych Jazz и Blues 0 27.12.2008 05:27
Альбом Count Basie & Oscar Peterson - The Timekeepers (Count Basie Meets Oscar Peterson) sergych Jazz и Blues 0 26.12.2008 04:10


Метки
2010 , jazz , oscar peterson , standards , swing

Опции темы

Ваши права в разделе
Вы не можете создавать новые темы
Вы не можете отвечать в темах
Вы не можете прикреплять вложения
Вы не можете редактировать свои сообщения

Быстрый переход



Текущее время: 21:48. Часовой пояс GMT +3.
Powered by vBulletin® Version 3.8.10
Copyright ©2000 - 2018, vBulletin Solutions, Inc. Перевод: zCarot
© 2008 - 2018 Taifun With Song
Яндекс.Метрика