1
[Альбом] Океан Ельзи - Мiра - TAIFUN With Song
TAIFUN With Song
Навигация
Вернуться   TAIFUN With Song > Music (обменник) > Rock > Pop Rock
Расширенный поиск
Pop Rock Поп-рок — жанр музыки, объединяющий элементы поп-музыки и рок-музыки. Песни характеризуются простой структурой, запоминающимися мелодиями, повторением музыкальных фраз (от попа), использованием в качестве основных инструментов электрогитар и ударных и агрессивным настроением (от рока).

А знаете ли Вы, что...
Где собачий вальс зовут ослиным маршем, а где — кошачьей полькой?
«Собачий вальс в разных странах называется по-разному. В Германии, Бельгии, Нидерландах — блошиный вальс. В Болгарии — кошачий марш, а в Финляндии — кошачья полька. В Венгрии — ослиный марш, а во Франции его почему-то называют отбивной котлетой.»
 
Опции темы

  #1
Старый 29.05.2011, 13:39
sergych
Координатор
Досье
 
Аватар для sergych
Релиз Океан Ельзи - Мiра


2007(2014) - Океан Ельзи - Мiра




Исполнитель/Artist: Океан Ельзи
Альбом/Album: Мiра
Год/Year: 2007
Ремастеринг/Remaster: 2014
Жанр/Genre: pop rock, rock
Страна/Country: Россия
Рекорд-лейбл/Record label: Никитин ЭмДиСи
Номер в каталоге/Catalogue #: UMGCD14-209
Формат/Format: Free Lossless Audio Codec (*.flac)
Качество/Quality: Lossless
Тип рипа/RIP Type: image+.cue
Продолжительность/Length: Нет данных
Источник/Source: Собственный рип
Размер/Size: 295.8 MB

Сканы в комплекте

Треклист

01. Міра [0:04:03.58]
02. День у день [0:02:57.18]
03. Хочу напитись тобою [0:03:42.72]
04. Пташка [0:02:45.49]
05. Зелені очі [0:04:10.20]
06. Коли тобі важко [0:03:54.49]
07. Як довго [0:03:02.45]
08. Не можу без тебе [0:02:36.58]
09. Лелеки [0:04:06.32]
10. Ночі і дні [0:03:03.37]
11. Все буде добре [0:03:10.63]
12. Моя мала [0:03:39.28]
[свернуть]

youtube.com

[свернуть]

Исполнители/Performers

Святослав Вакарчук — вокал
Петр Чернявский — гитара, акустическая гитара, ситар, бэк-вокал
Денис Дудко — бас-гитара, бэк-вокал
Милош Елич — рояль, синтезаторы, электропиано, орган, бэк-вокал
Денис Глинин — барабаны, перкуссия

Приглашенные музыканты
Виталий Телезин — синтезатор, перкуссия, tulubar bell
Вадим Никитан — труба
Олег Шеремета — флейта
Киевский Филармонический оркестр
[свернуть]

EAC лог

Exact Audio Copy V1.3 from 2. September 2016

EAC extraction logfile from 22. June 2018, 10:55

Океан Ельзи / Мiра

Used drive : ATAPI iHAS124 D Adapter: 0 ID: 2

Read mode : Secure
Utilize accurate stream : Yes
Defeat audio cache : Yes
Make use of C2 pointers : No

Read offset correction : 6
Overread into Lead-In and Lead-Out : No
Fill up missing offset samples with silence : Yes
Delete leading and trailing silent blocks : No
Null samples used in CRC calculations : Yes
Used interface : Installed external ASPI interface

Used output format : User Defined Encoder
Selected bitrate : 1024 kBit/s
Quality : High
Add ID3 tag : No
Command line compressor : C:\Program Files (x86)\Exact Audio Copy\Flac\flac.exe
Additional command line options : -6 -V -T "ARTIST=%artist%" -T "TITLE=%title%" -T "ALBUM=%albumtitle%" -T "DATE=%year%" -T "TRACKNUMBER=%tracknr%" -T "GENRE=%genre%" -T "COMMENT=%comment%" -T "BAND=%albuminterpret%" -T "ALBUMARTIST=%albuminterpret%" -T "COMPOSER=%composer%" %haslyrics%--tag-from-file=LYRICS="%lyricsfile%"%haslyrics% -T "DISCNUMBER=%cdnumber%" -T "TOTALDISCS=%totalcds%" -T "TOTALTRACKS=%numtracks%" %hascover%--picture="%coverfile%"%hascover% %source% -o %dest%


TOC of the extracted CD

Track | Start | Length | Start sector | End sector
---------------------------------------------------------
1 | 0:00.00 | 4:03.58 | 0 | 18282
2 | 4:03.58 | 2:57.18 | 18283 | 31575
3 | 7:01.01 | 3:42.72 | 31576 | 48297
4 | 10:43.73 | 2:45.49 | 48298 | 60721
5 | 13:29.47 | 4:10.20 | 60722 | 79491
6 | 17:39.67 | 3:54.49 | 79492 | 97090
7 | 21:34.41 | 3:02.45 | 97091 | 110785
8 | 24:37.11 | 2:36.58 | 110786 | 122543
9 | 27:13.69 | 4:06.32 | 122544 | 141025
10 | 31:20.26 | 3:03.37 | 141026 | 154787
11 | 34:23.63 | 3:10.63 | 154788 | 169100
12 | 37:34.51 | 3:39.28 | 169101 | 185553


Range status and errors

Selected range

Filename C:\mm\Океан Ельзи\2007(2010) - Мiра [UMGCD14-209]\Океан Ельзи - Мiра.wav

Suspicious position 0:27:13

Peak level 100.0 %
Extraction speed 1.6 X
Range quality 99.9 %
Test CRC 68C54B23
Copy CRC 4697B804
Copy finished

There were errors

End of status report

---- CUETools DB Plugin V2.1.6

[CTDB TOCID: WZtetkl7HbufKudazhpJ92lUrlk-] found
Submit result: insufficient quality
Track | CTDB Status
1 | (1/2) Accurately ripped, or (1/2) differs in 9 samples @00:15:66,00:21:38
2 | (2/2) Accurately ripped
3 | (2/2) Accurately ripped
4 | (2/2) Accurately ripped
5 | (2/2) Accurately ripped
6 | (2/2) Accurately ripped
7 | (2/2) Accurately ripped
8 | (2/2) Accurately ripped
9 | (1/2) Differs in 176 samples @00:00:18, or (1/2) differs in 176 samples @00:00:18
10 | (2/2) Accurately ripped
11 | (2/2) Accurately ripped
12 | (2/2) Accurately ripped
If you are sure that your rip contains errors, you can use CUETools to repair it.
[свернуть]

Файл CUE

REM GENRE Rock
REM DATE 2007
REM DISCID 9C09AA0C
REM COMMENT "ExactAudioCopy v1.3"
PERFORMER "Океан Ельзи"
TITLE "Мiра"
REM COMPOSER ""
FILE "Океан Ельзи - Мiра.flac" WAVE
TRACK 01 AUDIO
TITLE "Міра "
PERFORMER "Океан Ельзи"
REM COMPOSER ""
FLAGS DCP
INDEX 01 00:00:00
TRACK 02 AUDIO
TITLE "День у день"
PERFORMER "Океан Ельзи"
REM COMPOSER ""
FLAGS DCP
INDEX 00 04:01:58
INDEX 01 04:03:58
TRACK 03 AUDIO
TITLE "Хочу напитись тобою"
PERFORMER "Океан Ельзи"
REM COMPOSER ""
FLAGS DCP
INDEX 00 06:59:01
INDEX 01 07:01:01
TRACK 04 AUDIO
TITLE "Пташка"
PERFORMER "Океан Ельзи"
REM COMPOSER ""
FLAGS DCP
INDEX 00 10:41:73
INDEX 01 10:43:73
TRACK 05 AUDIO
TITLE "Зелені очі"
PERFORMER "Океан Ельзи"
REM COMPOSER ""
FLAGS DCP
INDEX 00 13:27:47
INDEX 01 13:29:47
TRACK 06 AUDIO
TITLE "Коли тобі важко"
PERFORMER "Океан Ельзи"
REM COMPOSER ""
FLAGS DCP
INDEX 00 17:37:67
INDEX 01 17:39:67
TRACK 07 AUDIO
TITLE "Як довго"
PERFORMER "Океан Ельзи"
REM COMPOSER ""
FLAGS DCP
INDEX 00 21:32:41
INDEX 01 21:34:41
TRACK 08 AUDIO
TITLE "Не можу без тебе"
PERFORMER "Океан Ельзи"
REM COMPOSER ""
FLAGS DCP
INDEX 00 24:35:11
INDEX 01 24:37:11
TRACK 09 AUDIO
TITLE "Лелеки"
PERFORMER "Океан Ельзи"
REM COMPOSER ""
FLAGS DCP
INDEX 00 27:11:69
INDEX 01 27:13:69
TRACK 10 AUDIO
TITLE "Ночі і дні"
PERFORMER "Океан Ельзи"
REM COMPOSER ""
FLAGS DCP
INDEX 00 31:18:26
INDEX 01 31:20:26
TRACK 11 AUDIO
TITLE "Все буде добре"
PERFORMER "Океан Ельзи"
REM COMPOSER ""
FLAGS DCP
INDEX 00 34:21:63
INDEX 01 34:23:63
TRACK 12 AUDIO
TITLE "Моя мала"
PERFORMER "Океан Ельзи"
REM COMPOSER ""
FLAGS DCP
INDEX 00 37:32:51
INDEX 01 37:34:51
[свернуть]

Лог проверки качества

AUDIOCHECKER v2.0 beta (build 457) - by Dester - [Ссылки могут видеть только зарегистрированные и активированные пользователи.]
[Only registered and activated users can see links.]
~~~~~~~~~~~~~~~~~~~~~~~~~~~~~~~~~~
-=== НЕ РЕДАКТИРУЙТЕ ЭТОТ ФАЙЛ! ===-

Путь: ...\2007(2010) - Мiра [UMGCD14-209]

1 -=- Океан Ельзи - Мiра.flac -=- CDDA (100%)

158704372
[свернуть]

Спектр частот

[свернуть]

Скачать Океан Ельзи - Мiра

[Ссылки могут видеть только зарегистрированные и активированные пользователи.]
[Only registered and activated users can see links.]

password: sergych
[свернуть]

Контрольная сумма (хеш-сумма) архива

MD5: 7faa3dd27bb3e01218af943e53e03122
[свернуть]
My opinion of release: 10/10
__________________
TAIFUN.Wings of Soul


Последний раз редактировалось sergych, 22.06.2018 в 20:52. Причина: заменил инетовские mp3-шки собственным рипом
Вверх
Пользователь сказал cпасибо:
TAIFUN (29.05.2011)
  #2
Старый 23.06.2018, 16:36
sergych
Координатор
Досье
 
Аватар для sergych
По умолчанию Re: Океан Ельзи - Мiра

замена инетовских mp3 собственным рипом
__________________
TAIFUN.Wings of Soul

Вверх

Метки
2007 , 2014 , pop rock , rock , мiра , океан ельзи

Опции темы

Ваши права в разделе
Вы не можете создавать новые темы
Вы не можете отвечать в темах
Вы не можете прикреплять вложения
Вы не можете редактировать свои сообщения

Быстрый переход



Текущее время: 06:35. Часовой пояс GMT +3.
Powered by vBulletin® Version 3.8.10
Copyright ©2000 - 2018, vBulletin Solutions, Inc. Перевод: zCarot
© 2008 - 2018 Taifun With Song
Яндекс.Метрика