TAIFUN With Song
Навигация
Вернуться   TAIFUN With Song > Music (обменник) > Chill Out > New age
Расширенный поиск
New age New Age - в большинстве случаев музыка не импровизационная, а скорее выверенная заранее, поскольку она призвана создавать некие состояния души, позволяющие погружаться в собственное подсознание. Как это ни парадоксально, но некая часть этой спокойной и благородной музыки нашла свое прикладное применение в ряде сфер практической жизни. Ее проигрывают в аэропортах, в лифтах громадных офисных зданий, используют в медицине, везде, где необходимо создание душевного равновесия. New Age нельзя считать музыкой упрощенной, хотя часто встречаются образцы, где нет сложных гармоний или изощренных импровизаций. Ее сложность в глубине переживаний, доступной отнюдь не каждому. Нередко прослушивание такой музыки помогает человеку освободиться от стрессов каждодневной жизни большого города, очиститься, расслабиться и сберечь свою психику от срыва.

А знаете ли Вы, что...
Каким образом Эдит Пиаф помогала бежать из немецких лагерей французским военнопленным?
«Французская певица Эдит Пиаф в период оккупации выступала в лагерях для военнопленных на территории Германии, после которых фотографировалась на память с ними и немецкими офицерами. Затем в Париже лица военнопленных вырезали и вклеивали в фальшивые документы. Пиаф ехала в лагерь с повторным визитом и тайно провозила эти паспорта, с которыми некоторым пленным удавалось бежать.»
 
Опции темы

  #1
Старый 13.02.2016, 08:01
sergych
Координатор
Досье
 
Аватар для sergych
Релиз Clannad - Pastpresent


1989 - Clannad - Pastpresent




Исполнитель/Artist: Clannad
Альбом/Album: Pastpresent
Год/Year: 1989
Жанр/Genre: Traditional Irish, folk, Celtic, rock, new age
Страна/Country: Германия
Рекорд-лейбл/Record label: BMG Records / RCA
Номер в каталоге/Catalogue #: PD74074
Формат/Format: Free Lossless Audio Codec (*.flac)
Качество/Quality: Lossless
Тип рипа/RIP Type: image+.cue
Продолжительность/Length: 01:04:57
Источник/Source: Собственный рип
Размер/Size: 382.3 MB

Сканы в комплекте

Треклист

01. Theme From Harry's Game (1982) [0:02:30.45]
02. Closer To Your Heart (1985) [0:03:31.17]
03. Almost Seems (Too Late To Turn) (1985) [0:04:52.03]
04. The Hunter (1989) [0:04:57.27]
05. Lady Marian (1984) [0:03:25.00]
06. Sirius (1987) [0:05:36.38]
07. Coinleach Glas An Fhomair (1983) [0:05:58.72]
08. Second Nature (1987) [0:03:21.33]
09. World Of Difference (1989) [0:04:02.27]
10. In A Lifetime (1985) [0:03:10.50]
11. Robin (The Hooded Man) (1984) [0:02:50.60]
12. Something To Believe In (1987) [0:04:48.08]
13. Newgrange (1983) [0:04:05.25]
14. Buachaill An Eirne (1985) [0:03:11.67]
15. White Fool (1987) [0:04:39.73]
16. Stepping Stone (1987) [0:03:53.65]
[свернуть]

youtube.com

[свернуть]

Исполнители/Performers

Current members
Moya Brennan – vocals, harp (1970–present)
Ciarán Brennan – bass, guitar, keyboards, mandolin, vocals (1970–present)
Noel Duggan – guitar, vocals (1970–present)
Pádraig Duggan – guitar, mandola, mandolin, vocals (1970–present)
Pól Brennan – flute, guitar, percussion, whistles, vocals (1970–1990, 2011–present)

Former members
Enya Brennan – percussion, keyboards, vocals (1980–1982)
[свернуть]

EAC лог

Exact Audio Copy V1.1 from 23. June 2015

EAC extraction logfile from 12. February 2016, 2:28

Clannad / Pastpresent

Used drive : ATAPI iHAS124 D Adapter: 0 ID: 2

Read mode : Secure
Utilize accurate stream : Yes
Defeat audio cache : Yes
Make use of C2 pointers : No

Read offset correction : 6
Overread into Lead-In and Lead-Out : No
Fill up missing offset samples with silence : Yes
Delete leading and trailing silent blocks : No
Null samples used in CRC calculations : Yes
Used interface : Installed external ASPI interface

Used output format : User Defined Encoder
Selected bitrate : 1024 kBit/s
Quality : High
Add ID3 tag : Yes
Command line compressor : C:\Program Files (x86)\Exact Audio Copy\Flac\flac.exe
Additional command line options : -6 -V -T "ARTIST=%artist%" -T "TITLE=%title%" -T "ALBUM=%albumtitle%" -T "DATE=%year%" -T "TRACKNUMBER=%tracknr%" -T "GENRE=%genre%" -T "COMMENT=%comment%" -T "BAND=%albuminterpret%" -T "COMPOSER=%composer%" %haslyrics%--tag-from-file=LYRICS="%lyricsfile%"%haslyrics% -T "DISCNUMBER=%cdnumber%" -T "TOTALDISCS=%totalcds%" -T "TOTALTRACKS=%numtracks%" %hascover%--picture="%coverfile%"%hascover% %source% -o %dest%


TOC of the extracted CD

Track | Start | Length | Start sector | End sector
---------------------------------------------------------
1 | 0:00.00 | 2:30.45 | 0 | 11294
2 | 2:30.45 | 3:31.17 | 11295 | 27136
3 | 6:01.62 | 4:52.03 | 27137 | 49039
4 | 10:53.65 | 4:57.27 | 49040 | 71341
5 | 15:51.17 | 3:25.00 | 71342 | 86716
6 | 19:16.17 | 5:36.38 | 86717 | 111954
7 | 24:52.55 | 5:58.72 | 111955 | 138876
8 | 30:51.52 | 3:21.33 | 138877 | 153984
9 | 34:13.10 | 4:02.27 | 153985 | 172161
10 | 38:15.37 | 3:10.50 | 172162 | 186461
11 | 41:26.12 | 2:50.60 | 186462 | 199271
12 | 44:16.72 | 4:48.08 | 199272 | 220879
13 | 49:05.05 | 4:05.25 | 220880 | 239279
14 | 53:10.30 | 3:11.67 | 239280 | 253671
15 | 56:22.22 | 4:39.73 | 253672 | 274669
16 | 61:02.20 | 3:53.65 | 274670 | 292209


Range status and errors

Selected range

Filename C:\mm\Clannad\1989 - Pastpresent [PD74074]\Clannad - Pastpresent.wav

Peak level 85.8 %
Extraction speed 10.2 X
Range quality 100.0 %
Test CRC CE942859
Copy CRC CE942859
Copy OK

No errors occurred


AccurateRip summary

Track 1 accurately ripped (confidence 102) [B79AE81B] (AR v2)
Track 2 accurately ripped (confidence 101) [B67A2401] (AR v2)
Track 3 accurately ripped (confidence 101) [6777545C] (AR v2)
Track 4 accurately ripped (confidence 101) [B4B66395] (AR v2)
Track 5 accurately ripped (confidence 102) [3C3CFCBF] (AR v2)
Track 6 accurately ripped (confidence 101) [D6D5972C] (AR v2)
Track 7 accurately ripped (confidence 99) [F3200497] (AR v2)
Track 8 accurately ripped (confidence 101) [DBEFBF5C] (AR v2)
Track 9 accurately ripped (confidence 101) [6A87423E] (AR v2)
Track 10 accurately ripped (confidence 101) [F05FB9C9] (AR v2)
Track 11 accurately ripped (confidence 99) [864454D9] (AR v2)
Track 12 accurately ripped (confidence 101) [DF7229D2] (AR v2)
Track 13 accurately ripped (confidence 96) [BE110711] (AR v2)
Track 14 accurately ripped (confidence 99) [29D1B31B] (AR v2)
Track 15 accurately ripped (confidence 96) [2F1A004C] (AR v2)
Track 16 accurately ripped (confidence 98) [C6788E05] (AR v2)

All tracks accurately ripped

End of status report
[свернуть]

Файл CUE

REM GENRE Celtic
REM DATE 1989
REM DISCID FE0F3810
REM COMMENT "ExactAudioCopy v1.1"
PERFORMER "Clannad"
TITLE "Pastpresent"
FILE "Clannad - Pastpresent.flac" WAVE
TRACK 01 AUDIO
TITLE "Theme From Harry's Game"
PERFORMER "Clannad"
INDEX 01 00:00:00
TRACK 02 AUDIO
TITLE "Closer To Your Heart"
PERFORMER "Clannad"
INDEX 00 02:28:22
INDEX 01 02:30:45
TRACK 03 AUDIO
TITLE "Almost Seems (Too Late To Turn)"
PERFORMER "Clannad"
INDEX 00 05:59:57
INDEX 01 06:01:62
TRACK 04 AUDIO
TITLE "The Hunter"
PERFORMER "Clannad"
INDEX 00 10:51:10
INDEX 01 10:53:65
TRACK 05 AUDIO
TITLE "Lady Marian"
PERFORMER "Clannad"
INDEX 00 15:49:17
INDEX 01 15:51:17
TRACK 06 AUDIO
TITLE "Sirius"
PERFORMER "Clannad"
INDEX 00 19:12:52
INDEX 01 19:16:17
TRACK 07 AUDIO
TITLE "Coinleach Glas An Fhomair"
PERFORMER "Clannad"
INDEX 00 24:50:42
INDEX 01 24:52:55
TRACK 08 AUDIO
TITLE "Second Nature"
PERFORMER "Clannad"
INDEX 00 30:50:00
INDEX 01 30:51:52
TRACK 09 AUDIO
TITLE "World Of Difference"
PERFORMER "Clannad"
INDEX 00 34:11:70
INDEX 01 34:13:10
TRACK 10 AUDIO
TITLE "In A Lifetime"
PERFORMER "Clannad"
INDEX 00 38:13:70
INDEX 01 38:15:37
TRACK 11 AUDIO
TITLE "Robin (The Hooded Man)"
PERFORMER "Clannad"
INDEX 00 41:23:57
INDEX 01 41:26:12
TRACK 12 AUDIO
TITLE "Something To Believe In"
PERFORMER "Clannad"
INDEX 00 44:14:42
INDEX 01 44:16:72
TRACK 13 AUDIO
TITLE "Newgrange"
PERFORMER "Clannad"
INDEX 00 49:02:42
INDEX 01 49:05:05
TRACK 14 AUDIO
TITLE "Buachaill An Eirne"
PERFORMER "Clannad"
INDEX 00 53:08:15
INDEX 01 53:10:30
TRACK 15 AUDIO
TITLE "White Fool"
PERFORMER "Clannad"
INDEX 00 56:19:05
INDEX 01 56:22:22
TRACK 16 AUDIO
TITLE "Stepping Stone"
PERFORMER "Clannad"
INDEX 00 61:00:30
INDEX 01 61:02:20
[свернуть]

Лог проверки качества

AUDIOCHECKER v2.0 beta (build 457) - by Dester -
~~~~~~~~~~~~~~~~~~~~~~~~~~~~~~~~~~
-=== НЕ РЕДАКТИРУЙТЕ ЭТОТ ФАЙЛ! ===-

Путь: ...\1989 - Pastpresent [PD74074]

1 -=- Clannad - Pastpresent.flac -=- CDDA (100%)

46535764
[свернуть]

Спектр частот

[свернуть]

Скачать Clannad - Pastpresent



password: sergych
[свернуть]
My opinion of release: 10/10

Release info RInfo

Clannad (Кла́ннад) — ирландская музыкальная группа. Музыку Clannad можно охарактеризовать как синтез кельтского фолка, рока, нью-эйдж и джаза. Поют на гэльском (ирландском) и английском языках.

В состав группы входят Мойя Бреннан (Máire Brennan), её родные братья Кирон Бреннан (Ciarán Brennan) и Пол Бреннан (Pól Brennan), и двоюродные дяди Ноэль Дугган (Noel Duggan) и Патрик Дугган (Padraig Duggan). Все они родом из городка Гвидор, округ Донегол, Ирландия. Название группы происходит от ирл. an Clann as Dobhair — семья из Dobhair (ирландское название Донегола). В таком составе они выступали в таверне своего отца Лео Бреннана. Первый большой успех к музыкантам пришёл в 1970 году, когда группа победила на престижном фолк-фестивале «Лэттэркенни», результатом чего стала официальная запись первого диска. С 1980 по 1982 в группе играла сестра Мойи Эния (Enya), которая позже начала успешную сольную карьеру. Группе принадлежит авторство саундтрека к сериалу «Робин из Шервуда» (Robin of Sherwood).

Альбом 1997 года «Landmarks» получил премию Грэмми за 1999 год как лучший альбом в стиле нью-эйдж.
()
__________________
TAIFUN.Wings of Soul

Вверх
Пользователь сказал cпасибо:
TAIFUN (19.02.2016)
Похожие темы
Тема Автор Раздел Ответов Последнее сообщение
Сборник Clannad - The Best Of Clannad - In A Lifetime PUPOKIN New age 0 06.12.2009 09:50


Метки
1989 , celtic , clannad , folk , new age , pastpresent , rock , traditional irish

Опции темы

Ваши права в разделе
Вы не можете создавать новые темы
Вы не можете отвечать в темах
Вы не можете прикреплять вложения
Вы не можете редактировать свои сообщения

Быстрый переход



Текущее время: 00:06. Часовой пояс GMT +3.
Powered by vBulletin® Version 3.8.10
Copyright ©2000 - 2018, vBulletin Solutions, Inc. Перевод: zCarot
© 2008 - 2018 Taifun With Song
Яндекс.Метрика