TAIFUN With Song
Навигация
Вернуться   TAIFUN With Song > Music (обменник) > Chill Out > New age
Расширенный поиск
New age New Age - в большинстве случаев музыка не импровизационная, а скорее выверенная заранее, поскольку она призвана создавать некие состояния души, позволяющие погружаться в собственное подсознание. Как это ни парадоксально, но некая часть этой спокойной и благородной музыки нашла свое прикладное применение в ряде сфер практической жизни. Ее проигрывают в аэропортах, в лифтах громадных офисных зданий, используют в медицине, везде, где необходимо создание душевного равновесия. New Age нельзя считать музыкой упрощенной, хотя часто встречаются образцы, где нет сложных гармоний или изощренных импровизаций. Ее сложность в глубине переживаний, доступной отнюдь не каждому. Нередко прослушивание такой музыки помогает человеку освободиться от стрессов каждодневной жизни большого города, очиститься, расслабиться и сберечь свою психику от срыва.

А знаете ли Вы, что...
Почему обложку музыкального сборника
«В 2005 году Sony BMG выпустила музыкальный сборник ‘Electric 80s’. В оформлении обложки диска был использован большой штрих-код. Некоторые супермаркеты потерпели убытки после того, как их продавцы считывали сканерами именно этот штрих-код вместо обычного, располагающегося на обратной стороне диска. Сканеры распознавали по коду другой товар, который стоил дешевле. Во второй партии дисков обложка была изменена.»
 
Опции темы

  #1
Старый 21.09.2014, 13:39
sergych
Координатор
Досье
 
Аватар для sergych
Релиз Yanni - Tribute


1997 - Yanni - Tribute




Исполнитель/Artist: Yanni
Альбом/Album: Tribute
Год/Year: 1997
Жанр/Genre: Contemporary instrumental, Easy listening, Soft adult contemporary
Рекорд-лейбл/Record label: Virgin Records
Номер в каталоге/Catalogue #: 7243 8 44981 2 2
Формат/Format: Free Lossless Audio Codec (*.flac)
Качество/Quality: Lossless
Тип рипа/RIP Type: image+.cue
Продолжительность/Length: 01:07:38
Источник/Source: Собственный рип
Размер/Size: 523.1 MB

Сканы в комплекте

Треклист

01. Deliverance [0:08:35.62]
02. Adagio In C Minor [0:03:51.40]
03. Renegade [0:07:17.25]
04. Dance With A Stranger [0:06:48.48]
05. Tribute [0:06:41.52]
06. Prelude [0:02:26.18]
07. Love Is All [0:05:29.20]
08. Southern Exposure [0:06:50.22]
09. Waltz In 7/8 [0:05:35.00]
10. Nightingale [0:05:48.15]
11. Niki Nana (We're One) [0:08:14.70]
[свернуть]

youtube.com

[свернуть]

Исполнители/Performers

Yanni ( Keyboards, Synthesizer)

Band
Karen Briggs ( violin)
Daniel de los Reyes ( percussion)
Pedro Eustache ( flute, soprano saxophone, bamboo saxophone, duduk, quena, chinese flute, ney, bass flute)
Ric Fierabracci ( bass guitar)
Ming Freeman ( keyboards)
David Hudson ( didjeridu)
Ramon Stagnaro ( guitar, charango)
Joel Taylor ( drums)

Vocalists
Catte Adams
Jeanette Clinger
Alfreda Gerald
Vann Johnson

Conductor
Armen Anassian - conductor, violin soloist

Orchestra
Beth Folsom ( violin)
Julian Hallmark ( violin)
Sayuri Kawada ( violin)
Neal Laite ( violin)
Ann Lasley ( violin)
Will Logan ( violin)
Julie Metz ( violin)
Pam Moore ( violin)
Cheryl Ongaro ( violin)
Delia Park ( violin)
Irina Voloshina ( violin)
German Markosian ( viola)
Eugene Mechtovich ( viola)
Cathy Paynter ( viola)
John Krovoza ( cello)
Sarah O'Brien ( cello)
Lisa Pribanic ( cello)
Alexander Zhiroff ( cello)
Gary Lasley ( contra bass)
April Aoki ( harp)
Cheryl Foster ( oboe)
Luis Aquino ( trumpet)
Kerry Hughes ( trumpet)
Paul Klintworth ( French horn)
Doug Lyons ( French horn)
Rich Berkeley ( trombone)
[свернуть]

EAC лог

Exact Audio Copy V1.0 beta 3 from 29. August 2011

EAC extraction logfile from 21. September 2014, 12:40

Yanni / Tribute

Used drive : ATAPI iHAS124 D Adapter: 0 ID: 2

Read mode : Secure
Utilize accurate stream : Yes
Defeat audio cache : Yes
Make use of C2 pointers : No

Read offset correction : 6
Overread into Lead-In and Lead-Out : No
Fill up missing offset samples with silence : Yes
Delete leading and trailing silent blocks : No
Null samples used in CRC calculations : Yes
Used interface : Installed external ASPI interface

Used output format : User Defined Encoder
Selected bitrate : 1024 kBit/s
Quality : High
Add ID3 tag : No
Command line compressor : C:\Program Files (x86)\Exact Audio Copy\Flac\flac.exe
Additional command line options : -6 -V -T "ARTIST=%artist%" -T "TITLE=%title%" -T "ALBUM=%albumtitle%" -T "DATE=%year%" -T "TRACKNUMBER=%tracknr%" -T "GENRE=%genre%" -T "COMMENT=%comment%" -T "BAND=%albuminterpret%" -T "COMPOSER=%composer%" %haslyrics%--tag-from-file=LYRICS="%lyricsfile%"%haslyrics% -T "DISCNUMBER=%cdnumber%" -T "TOTALDISCS=%totalcds%" -T "TOTALTRACKS=%numtracks%" %hascover%--picture="%coverfile%"%hascover% %source% -o %dest%


TOC of the extracted CD

Track | Start | Length | Start sector | End sector
---------------------------------------------------------
1 | 0:00.00 | 8:35.62 | 0 | 38686
2 | 8:35.62 | 3:51.40 | 38687 | 56051
3 | 12:27.27 | 7:17.25 | 56052 | 88851
4 | 19:44.52 | 6:48.48 | 88852 | 119499
5 | 26:33.25 | 6:41.52 | 119500 | 149626
6 | 33:15.02 | 2:26.18 | 149627 | 160594
7 | 35:41.20 | 5:29.20 | 160595 | 185289
8 | 41:10.40 | 6:50.22 | 185290 | 216061
9 | 48:00.62 | 5:35.00 | 216062 | 241186
10 | 53:35.62 | 5:48.15 | 241187 | 267301
11 | 59:24.02 | 8:14.70 | 267302 | 304421


Range status and errors

Selected range

Filename D:\MultiMedia\Mp3\_Redo\_ENG\Yanni\1997 - Tribute [7243 8 44981 2 2]\Yanni - Tribute.wav

Peak level 100.0 %
Extraction speed 9.8 X
Range quality 100.0 %
Test CRC 29EA6FFB
Copy CRC 29EA6FFB
Copy OK

No errors occurred


AccurateRip summary

Track 1 accurately ripped (confidence 39) [410975B9] (AR v2)
Track 2 accurately ripped (confidence 39) [A0AA914A] (AR v2)
Track 3 accurately ripped (confidence 39) [3AE2EAAE] (AR v2)
Track 4 accurately ripped (confidence 37) [995F2F28] (AR v2)
Track 5 accurately ripped (confidence 38) [61171A47] (AR v2)
Track 6 accurately ripped (confidence 38) [5B3384CA] (AR v2)
Track 7 accurately ripped (confidence 39) [25DE926D] (AR v2)
Track 8 accurately ripped (confidence 37) [EAB9F27F] (AR v2)
Track 9 accurately ripped (confidence 38) [CD965655] (AR v2)
Track 10 accurately ripped (confidence 37) [4DF5A934] (AR v2)
Track 11 accurately ripped (confidence 35) [C70CD86B] (AR v2)

All tracks accurately ripped

End of status report
[свернуть]

Файл CUE

REM GENRE "New Age"
REM DATE 1997
REM DISCID AF0FDA0B
REM COMMENT "ExactAudioCopy v1.0b3"
PERFORMER "Yanni"
TITLE "Tribute"
FILE "Yanni - Tribute.flac" WAVE
TRACK 01 AUDIO
TITLE "Deliverance"
PERFORMER "Yanni"
INDEX 01 00:00:00
TRACK 02 AUDIO
TITLE "Adagio In C Minor"
PERFORMER "Yanni"
INDEX 00 08:33:67
INDEX 01 08:35:62
TRACK 03 AUDIO
TITLE "Renegade"
PERFORMER "Yanni"
INDEX 00 12:26:22
INDEX 01 12:27:27
TRACK 04 AUDIO
TITLE "Dance With A Stranger"
PERFORMER "Yanni"
INDEX 00 19:41:42
INDEX 01 19:44:52
TRACK 05 AUDIO
TITLE "Tribute"
PERFORMER "Yanni"
INDEX 00 26:30:05
INDEX 01 26:33:25
TRACK 06 AUDIO
TITLE "Prelude"
PERFORMER "Yanni"
INDEX 00 33:13:67
INDEX 01 33:15:02
TRACK 07 AUDIO
TITLE "Love Is All"
PERFORMER "Yanni"
INDEX 01 35:41:20
TRACK 08 AUDIO
TITLE "Southern Exposure"
PERFORMER "Yanni"
INDEX 00 41:06:15
INDEX 01 41:10:40
TRACK 09 AUDIO
TITLE "Waltz In 7/8"
PERFORMER "Yanni"
INDEX 00 47:58:40
INDEX 01 48:00:62
TRACK 10 AUDIO
TITLE "Nightingale"
PERFORMER "Yanni"
INDEX 00 53:32:47
INDEX 01 53:35:62
TRACK 11 AUDIO
TITLE "Niki Nana (We're One)"
PERFORMER "Yanni"
INDEX 00 59:20:12
INDEX 01 59:24:02
[свернуть]

Лог проверки качества

AUDIOCHECKER v2.0 beta (build 457) - by Dester -
~~~~~~~~~~~~~~~~~~~~~~~~~~~~~~~~~~
-=== НЕ РЕДАКТИРУЙТЕ ЭТОТ ФАЙЛ! ===-

Путь: ...\1997 - Tribute [7243 8 44981 2 2]

1 -=- Yanni - Tribute.flac -=- CDDA (100%)

24119876
[свернуть]

Спектр частот

[свернуть]

Скачать Yanni - Tribute



password: sergych
[свернуть]
My opinion of release: 10/10
__________________
TAIFUN.Wings of Soul

Вверх
Пользователь сказал cпасибо:
TAIFUN (29.09.2014)
Похожие темы
Тема Автор Раздел Ответов Последнее сообщение
Альбом Yanni - Out of Silence sergych New age 0 01.05.2014 13:40
Альбом Yanni - If I Could Tell You sergych New age 0 10.02.2014 18:55
Альбом Yanni - In My Time sergych New age 0 07.02.2014 23:58
Сборник Yanni - Devotion: The Best of Yanni sergych New age 0 25.01.2014 18:04
Релиз Tribute to Steel - A Tribute to Warlock PUPOKIN Heavy Metal 0 30.01.2009 11:29


Метки
1997 , contemporary instrumental , easy listening , soft adult contemporary , tribute , yanni

Опции темы

Ваши права в разделе
Вы не можете создавать новые темы
Вы не можете отвечать в темах
Вы не можете прикреплять вложения
Вы не можете редактировать свои сообщения

Быстрый переход



Текущее время: 00:41. Часовой пояс GMT +3.
Powered by vBulletin® Version 3.8.10
Copyright ©2000 - 2018, vBulletin Solutions, Inc. Перевод: zCarot
© 2008 - 2017 Taifun With Song
Яндекс.Метрика