1
[Альбом] Yanni - Dare To Dream - TAIFUN With Song
TAIFUN With Song
Навигация
Вернуться   TAIFUN With Song > Music (обменник) > Chill Out > New age
Расширенный поиск
New age New Age - в большинстве случаев музыка не импровизационная, а скорее выверенная заранее, поскольку она призвана создавать некие состояния души, позволяющие погружаться в собственное подсознание. Как это ни парадоксально, но некая часть этой спокойной и благородной музыки нашла свое прикладное применение в ряде сфер практической жизни. Ее проигрывают в аэропортах, в лифтах громадных офисных зданий, используют в медицине, везде, где необходимо создание душевного равновесия. New Age нельзя считать музыкой упрощенной, хотя часто встречаются образцы, где нет сложных гармоний или изощренных импровизаций. Ее сложность в глубине переживаний, доступной отнюдь не каждому. Нередко прослушивание такой музыки помогает человеку освободиться от стрессов каждодневной жизни большого города, очиститься, расслабиться и сберечь свою психику от срыва.

А знаете ли Вы, что...
Чья кровь применялась при печати комиксов?
«Участники группы KISS для раскрутки первого комикса о себе сдали кровь и смешали её с красными чернилами в издающей комикс типографии.»
 
Опции темы

  #1
Старый 21.04.2014, 21:39
sergych
Координатор
Досье
 
Аватар для sergych
Релиз Yanni - Dare To Dream


1992 - Yanni - Dare To Dream




Исполнитель/Artist: Yanni
Альбом/Album: Dare To Dream
Год/Year: 1992
Жанр/Genre: Contemporary instrumental, Easy listening Soft, adult contemporary
Страна/Country: Соединённые Штаты
Рекорд-лейбл/Record label: Private Music
Номер в каталоге/Catalogue #: 01005-82096-2
Формат/Format: Free Lossless Audio Codec (*.flac)
Качество/Quality: Lossless
Тип рипа/RIP Type: image+.cue
Продолжительность/Length: 00:59:10
Источник/Source: Собственный рип
Размер/Size: 371.4 MB

Сканы в комплекте

Треклист

01. Once Upon A Time [0:03:53.48]
02. A Love For Life [0:05:10.20]
03. Nice To Meet You [0:05:37.72]
04. So Long My Friend [0:03:50.63]
05. You Only Live Once [0:07:22.15]
06. To The One Who Knows [0:05:40.00]
07. Face In The Photograph [0:03:49.05]
08. Felitsa [0:04:47.72]
09. Desire [0:05:02.65]
10. Aria [0:04:00.10]
11. A Night To Remember [0:05:48.35]
12. In The Mirror [0:04:07.35]
[свернуть]

youtube.com

[свернуть]

EAC лог

Exact Audio Copy V1.0 beta 3 from 29. August 2011

EAC extraction logfile from 21. April 2014, 20:27

Yanni / Dare To Dream

Used drive : ATAPI iHAS124 D Adapter: 0 ID: 2

Read mode : Secure
Utilize accurate stream : Yes
Defeat audio cache : Yes
Make use of C2 pointers : No

Read offset correction : 6
Overread into Lead-In and Lead-Out : No
Fill up missing offset samples with silence : Yes
Delete leading and trailing silent blocks : No
Null samples used in CRC calculations : Yes
Used interface : Installed external ASPI interface

Used output format : User Defined Encoder
Selected bitrate : 1024 kBit/s
Quality : High
Add ID3 tag : No
Command line compressor : C:\Program Files (x86)\Exact Audio Copy\Flac\flac.exe
Additional command line options : -6 -V -T "ARTIST=%artist%" -T "TITLE=%title%" -T "ALBUM=%albumtitle%" -T "DATE=%year%" -T "TRACKNUMBER=%tracknr%" -T "GENRE=%genre%" -T "COMMENT=%comment%" -T "BAND=%albuminterpret%" -T "COMPOSER=%composer%" %haslyrics%--tag-from-file=LYRICS="%lyricsfile%"%haslyrics% -T "DISCNUMBER=%cdnumber%" -T "TOTALDISCS=%totalcds%" -T "TOTALTRACKS=%numtracks%" %hascover%--picture="%coverfile%"%hascover% %source% -o %dest%


TOC of the extracted CD

Track | Start | Length | Start sector | End sector
---------------------------------------------------------
1 | 0:00.00 | 3:53.48 | 0 | 17522
2 | 3:53.48 | 5:10.20 | 17523 | 40792
3 | 9:03.68 | 5:37.72 | 40793 | 66139
4 | 14:41.65 | 3:50.63 | 66140 | 83452
5 | 18:32.53 | 7:22.15 | 83453 | 116617
6 | 25:54.68 | 5:40.00 | 116618 | 142117
7 | 31:34.68 | 3:49.05 | 142118 | 159297
8 | 35:23.73 | 4:47.72 | 159298 | 180894
9 | 40:11.70 | 5:02.65 | 180895 | 203609
10 | 45:14.60 | 4:00.10 | 203610 | 221619
11 | 49:14.70 | 5:48.35 | 221620 | 247754
12 | 55:03.30 | 4:07.35 | 247755 | 266314


Range status and errors

Selected range

Filename C:\mm\Yanni\1992 - Dare To Dream [01005-82096-2]\Yanni - Dare To Dream.wav

Peak level 100.0 %
Extraction speed 9.1 X
Range quality 100.0 %
Test CRC A1280081
Copy CRC A1280081
Copy OK

No errors occurred


AccurateRip summary

Track 1 accurately ripped (confidence 20) [34AAC29B] (AR v2)
Track 2 accurately ripped (confidence 20) [91854F6C] (AR v2)
Track 3 accurately ripped (confidence 20) [4425F837] (AR v2)
Track 4 accurately ripped (confidence 20) [513E359A] (AR v2)
Track 5 accurately ripped (confidence 19) [7DC3A3F0] (AR v2)
Track 6 accurately ripped (confidence 20) [D29EE48C] (AR v2)
Track 7 accurately ripped (confidence 20) [2E5ACFC9] (AR v2)
Track 8 accurately ripped (confidence 20) [4B561AA7] (AR v2)
Track 9 accurately ripped (confidence 20) [DB83ECDF] (AR v2)
Track 10 accurately ripped (confidence 20) [CA11976E] (AR v2)
Track 11 accurately ripped (confidence 17) [3D54FB91] (AR v2)
Track 12 accurately ripped (confidence 20) [E1541AAF] (AR v2)

All tracks accurately ripped

End of status report
[свернуть]

Файл CUE

REM GENRE "New Age"
REM DATE 1992
REM DISCID A20DDE0C
REM COMMENT "ExactAudioCopy v1.0b3"
PERFORMER "Yanni"
TITLE "Dare To Dream"
FILE "Yanni - Dare To Dream.flac" WAVE
TRACK 01 AUDIO
TITLE "Once Upon A Time"
PERFORMER "Yanni"
INDEX 01 00:00:00
TRACK 02 AUDIO
TITLE "A Love For Life"
PERFORMER "Yanni"
INDEX 00 03:50:68
INDEX 01 03:53:48
TRACK 03 AUDIO
TITLE "Nice To Meet You"
PERFORMER "Yanni"
INDEX 00 09:00:13
INDEX 01 09:03:68
TRACK 04 AUDIO
TITLE "So Long My Friend"
PERFORMER "Yanni"
INDEX 00 14:39:05
INDEX 01 14:41:65
TRACK 05 AUDIO
TITLE "You Only Live Once"
PERFORMER "Yanni"
INDEX 00 18:29:60
INDEX 01 18:32:53
TRACK 06 AUDIO
TITLE "To The One Who Knows"
PERFORMER "Yanni"
INDEX 00 25:52:33
INDEX 01 25:54:68
TRACK 07 AUDIO
TITLE "Face In The Photograph"
PERFORMER "Yanni"
INDEX 00 31:32:03
INDEX 01 31:34:68
TRACK 08 AUDIO
TITLE "Felitsa"
PERFORMER "Yanni"
INDEX 00 35:21:43
INDEX 01 35:23:73
TRACK 09 AUDIO
TITLE "Desire"
PERFORMER "Yanni"
INDEX 00 40:09:30
INDEX 01 40:11:70
TRACK 10 AUDIO
TITLE "Aria"
PERFORMER "Yanni"
INDEX 00 45:11:70
INDEX 01 45:14:60
TRACK 11 AUDIO
TITLE "A Night To Remember"
PERFORMER "Yanni"
INDEX 00 49:13:03
INDEX 01 49:14:70
TRACK 12 AUDIO
TITLE "In The Mirror"
PERFORMER "Yanni"
INDEX 00 55:01:70
INDEX 01 55:03:30
[свернуть]

Лог проверки качества

AUDIOCHECKER v2.0 beta (build 457) - by Dester - [Ссылки могут видеть только зарегистрированные и активированные пользователи.]
[Only registered and activated users can see links.]
~~~~~~~~~~~~~~~~~~~~~~~~~~~~~~~~~~
-=== НЕ РЕДАКТИРУЙТЕ ЭТОТ ФАЙЛ! ===-

Путь: ...\1992 - Dare To Dream [01005-82096-2]

1 -=- Yanni - Dare To Dream.flac -=- CDDA (100%)

30566228
[свернуть]

Спектр частот

[свернуть]

Скачать Yanni - Dare To Dream

[Ссылки могут видеть только зарегистрированные и активированные пользователи.]
[Only registered and activated users can see links.]

password: sergych
[свернуть]
My opinion of release: 10/10
__________________
TAIFUN.Wings of Soul

Вверх
Похожие темы
Тема Автор Раздел Ответов Последнее сообщение
Альбом Yanni - If I Could Tell You sergych New age 0 10.02.2014 18:55
Сборник Yanni - Devotion: The Best of Yanni sergych New age 0 25.01.2014 18:04
Альбом 10cc - How Dare You! PUPOKIN Soft Rock 2 16.02.2013 08:06
Релиз Dare - Arc Of The Dawn PUPOKIN Rock 0 26.11.2009 10:23
Альбом Mighty Sideshow - Dare You To Think PUPOKIN Hard Rock 0 31.10.2009 10:01


Метки
1992 , adult contemporary , contemporary instrumental , dare to dream , easy listening soft , yanni

Опции темы

Ваши права в разделе
Вы не можете создавать новые темы
Вы не можете отвечать в темах
Вы не можете прикреплять вложения
Вы не можете редактировать свои сообщения

Быстрый переход



Текущее время: 11:28. Часовой пояс GMT +3.
Powered by vBulletin® Version 3.8.10
Copyright ©2000 - 2018, vBulletin Solutions, Inc. Перевод: zCarot
© 2008 - 2018 Taifun With Song
Яндекс.Метрика