TAIFUN With Song
Навигация
Вернуться   TAIFUN With Song > Music (обменник) > Chill Out > New age
Расширенный поиск
New age New Age - в большинстве случаев музыка не импровизационная, а скорее выверенная заранее, поскольку она призвана создавать некие состояния души, позволяющие погружаться в собственное подсознание. Как это ни парадоксально, но некая часть этой спокойной и благородной музыки нашла свое прикладное применение в ряде сфер практической жизни. Ее проигрывают в аэропортах, в лифтах громадных офисных зданий, используют в медицине, везде, где необходимо создание душевного равновесия. New Age нельзя считать музыкой упрощенной, хотя часто встречаются образцы, где нет сложных гармоний или изощренных импровизаций. Ее сложность в глубине переживаний, доступной отнюдь не каждому. Нередко прослушивание такой музыки помогает человеку освободиться от стрессов каждодневной жизни большого города, очиститься, расслабиться и сберечь свою психику от срыва.

А знаете ли Вы, что...
Горький и Шаляпин пробовались в хор!
«Шаляпин и Горький практически в одно и то же время пробовались в хор. Горького взяли, Шаляпина нет.»
 
Опции темы

  #1
Старый 22.02.2014, 06:38
sergych
Координатор
Досье
 
Аватар для sergych
Релиз Vangelis - Direct


1988 - Vangelis - Direct




Исполнитель/Artist: Vangelis
Альбом/Album: Direct
Год/Year: 1988
Жанр/Genre: New Age, electronica
Страна/Country: Соединённые Штаты
Рекорд-лейбл/Record label: Arista
Номер в каталоге/Catalogue #: ARCD-8545
Формат/Format: Free Lossless Audio Codec (*.flac)
Качество/Quality: Lossless
Тип рипа/RIP Type: image+.cue
Продолжительность/Length: 01:03:21
Источник/Source: Собственный рип
Размер/Size: 385.1 MB

Сканы в комплекте

Треклист

01. The Motion of Stars [0:04:19.17]
02. The Will of the Wind [0:04:44.20]
03. Metallic Rain [0:06:11.38]
04. Elsewhere [0:05:45.27]
05. Dial Out [0:05:22.13]
06. Glorianna (Hymn à la Femme) [0:04:24.02]
07. Rotation's Logic [0:03:35.30]
08. The Oracle of Apollo [0:03:58.10]
09. Message [0:07:12.10]
10. Ave [0:05:04.05]
11. First Approach [0:05:01.55]
12. Intergalactic Radio Station [0:07:43.68]
[свернуть]

youtube.com

[свернуть]

EAC лог

Exact Audio Copy V1.0 beta 3 from 29. August 2011

EAC extraction logfile from 22. February 2014, 10:00

Vangelis / Direct

Used drive : ATAPI iHAS124 D Adapter: 0 ID: 2

Read mode : Secure
Utilize accurate stream : Yes
Defeat audio cache : Yes
Make use of C2 pointers : Yes

Read offset correction : 6
Overread into Lead-In and Lead-Out : No
Fill up missing offset samples with silence : Yes
Delete leading and trailing silent blocks : No
Null samples used in CRC calculations : Yes
Used interface : Installed external ASPI interface

Used output format : User Defined Encoder
Selected bitrate : 1024 kBit/s
Quality : High
Add ID3 tag : No
Command line compressor : C:\Program Files (x86)\Exact Audio Copy\Flac\flac.exe
Additional command line options : -6 -V -T "ARTIST=%artist%" -T "TITLE=%title%" -T "ALBUM=%albumtitle%" -T "DATE=%year%" -T "TRACKNUMBER=%tracknr%" -T "GENRE=%genre%" -T "COMMENT=%comment%" -T "BAND=%albuminterpret%" -T "COMPOSER=%composer%" %haslyrics%--tag-from-file=LYRICS="%lyricsfile%"%haslyrics% -T "DISCNUMBER=%cdnumber%" -T "TOTALDISCS=%totalcds%" -T "TOTALTRACKS=%numtracks%" %hascover%--picture="%coverfile%"%hascover% %source% -o %dest%


TOC of the extracted CD

Track | Start | Length | Start sector | End sector
---------------------------------------------------------
1 | 0:00.00 | 4:19.17 | 0 | 19441
2 | 4:19.17 | 4:44.20 | 19442 | 40761
3 | 9:03.37 | 6:11.38 | 40762 | 68624
4 | 15:15.00 | 5:45.27 | 68625 | 94526
5 | 21:00.27 | 5:22.13 | 94527 | 118689
6 | 26:22.40 | 4:24.02 | 118690 | 138491
7 | 30:46.42 | 3:35.30 | 138492 | 154646
8 | 34:21.72 | 3:58.10 | 154647 | 172506
9 | 38:20.07 | 7:12.10 | 172507 | 204916
10 | 45:32.17 | 5:04.05 | 204917 | 227721
11 | 50:36.22 | 5:01.55 | 227722 | 250351
12 | 55:38.02 | 7:43.68 | 250352 | 285144


Range status and errors

Selected range

Filename C:\mm\Vangelis\1988 - Direct [ARCD-8545]\Vangelis - Direct.wav

Peak level 100.0 %
Extraction speed 13.6 X
Range quality 100.0 %
Test CRC 1EAB9F6C
Copy CRC 1EAB9F6C
Copy OK

No errors occurred


AccurateRip summary

Track 1 accurately ripped (confidence 7) [E6AD357B] (AR v2)
Track 2 accurately ripped (confidence 7) [4FEEA1A1] (AR v2)
Track 3 accurately ripped (confidence 7) [D9F60F45] (AR v2)
Track 4 accurately ripped (confidence 7) [8C8FAA28] (AR v2)
Track 5 accurately ripped (confidence 7) [9515A5AD] (AR v2)
Track 6 accurately ripped (confidence 7) [8DDA1D3E] (AR v2)
Track 7 accurately ripped (confidence 7) [95682934] (AR v2)
Track 8 accurately ripped (confidence 7) [CE54C950] (AR v2)
Track 9 accurately ripped (confidence 7) [70B0952F] (AR v2)
Track 10 accurately ripped (confidence 7) [0CEF6EB5] (AR v2)
Track 11 accurately ripped (confidence 7) [B1C3C80C] (AR v2)
Track 12 accurately ripped (confidence 7) [22831C05] (AR v2)

All tracks accurately ripped

End of status report
[свернуть]

Файл CUE

REM GENRE Electronic
REM DATE 1988
REM DISCID 960ED90C
REM COMMENT "ExactAudioCopy v1.0b3"
PERFORMER "Vangelis"
TITLE "Direct"
FILE "Vangelis - Direct.flac" WAVE
TRACK 01 AUDIO
TITLE "The Motion of Stars"
PERFORMER "Vangelis"
INDEX 01 00:00:00
TRACK 02 AUDIO
TITLE "The Will of the Wind"
PERFORMER "Vangelis"
INDEX 01 04:19:17
TRACK 03 AUDIO
TITLE "Metallic Rain"
PERFORMER "Vangelis"
INDEX 01 09:03:37
TRACK 04 AUDIO
TITLE "Elsewhere"
PERFORMER "Vangelis"
INDEX 00 15:12:70
INDEX 01 15:15:00
TRACK 05 AUDIO
TITLE "Dial Out"
PERFORMER "Vangelis"
INDEX 00 20:57:72
INDEX 01 21:00:27
TRACK 06 AUDIO
TITLE "Glorianna (Hymn a la Femme)"
PERFORMER "Vangelis"
INDEX 00 26:21:70
INDEX 01 26:22:40
TRACK 07 AUDIO
TITLE "Rotation's Logic"
PERFORMER "Vangelis"
INDEX 00 30:43:60
INDEX 01 30:46:42
TRACK 08 AUDIO
TITLE "The Oracle of Apollo"
PERFORMER "Vangelis"
INDEX 00 34:15:65
INDEX 01 34:21:72
TRACK 09 AUDIO
TITLE "Message"
PERFORMER "Vangelis"
INDEX 00 38:18:10
INDEX 01 38:20:07
TRACK 10 AUDIO
TITLE "Ave"
PERFORMER "Vangelis"
INDEX 00 45:30:35
INDEX 01 45:32:17
TRACK 11 AUDIO
TITLE "First Approach"
PERFORMER "Vangelis"
INDEX 00 50:35:12
INDEX 01 50:36:22
TRACK 12 AUDIO
TITLE "Intergalactic Radio Station"
PERFORMER "Vangelis"
INDEX 00 55:36:55
INDEX 01 55:38:02
[свернуть]

Лог проверки качества

AUDIOCHECKER v2.0 beta (build 457) - by Dester -
~~~~~~~~~~~~~~~~~~~~~~~~~~~~~~~~~~
-=== НЕ РЕДАКТИРУЙТЕ ЭТОТ ФАЙЛ! ===-

Путь: ...\1988 - Direct [ARCD-8545]

1 -=- Vangelis - Direct.flac -=- MPEG (95%)

141132500
[свернуть]

Спектр частот

[свернуть]

Скачать Vangelis - Direct



password: sergych
[свернуть]
My opinion of release: 9/10
__________________
TAIFUN.Wings of Soul


Последний раз редактировалось sergych, 13.07.2014 в 12:58. Причина: перезаливка
Вверх
Пользователь сказал cпасибо:
TAIFUN (23.02.2014)
Похожие темы
Тема Автор Раздел Ответов Последнее сообщение
Сборник The Killers - Direct Hits [Deluxe Edition] PUPOKIN Indie Rock 0 07.11.2013 08:09
VA Cr2 Live And Direct Mync Vol 1 PUPOKIN House 0 12.07.2011 08:53
Альбом VANGELIS - Cosmos PUPOKIN Instrumental 0 24.10.2009 09:29
Vangelis Alex_vn69 Instrumental [FAQ] 1 08.08.2008 12:04
Альбом Vangelis - Oceanic Alex_vn69 Instrumental 0 03.05.2008 00:00


Метки
1988 , direct , electronica , new age , vangelis

Опции темы

Ваши права в разделе
Вы не можете создавать новые темы
Вы не можете отвечать в темах
Вы не можете прикреплять вложения
Вы не можете редактировать свои сообщения

Быстрый переход



Текущее время: 10:50. Часовой пояс GMT +3.
Powered by vBulletin® Version 3.8.10
Copyright ©2000 - 2018, vBulletin Solutions, Inc. Перевод: zCarot
© 2008 - 2018 Taifun With Song
Яндекс.Метрика