TAIFUN With Song
Навигация
Вернуться   TAIFUN With Song > Music (обменник) > Chill Out > New age
Расширенный поиск
New age New Age - в большинстве случаев музыка не импровизационная, а скорее выверенная заранее, поскольку она призвана создавать некие состояния души, позволяющие погружаться в собственное подсознание. Как это ни парадоксально, но некая часть этой спокойной и благородной музыки нашла свое прикладное применение в ряде сфер практической жизни. Ее проигрывают в аэропортах, в лифтах громадных офисных зданий, используют в медицине, везде, где необходимо создание душевного равновесия. New Age нельзя считать музыкой упрощенной, хотя часто встречаются образцы, где нет сложных гармоний или изощренных импровизаций. Ее сложность в глубине переживаний, доступной отнюдь не каждому. Нередко прослушивание такой музыки помогает человеку освободиться от стрессов каждодневной жизни большого города, очиститься, расслабиться и сберечь свою психику от срыва.

А знаете ли Вы, что...
Какой пианист играл одной левой?
«Австрийский пианист Пауль Витгенштейн потерял правую руку в Первой Мировой войне, однако возобновил концертную карьеру и достиг исключительного мастерства, играя одной левой. Виртуозное владение пианистической техникой позволило Витгенштейну успешно исполнять сочинения, сопоставимые по сложности даже для пианиста с двумя руками.»
 
Опции темы

  #1
Старый 21.09.2013, 15:54
sergych
Координатор
Досье
 
Аватар для sergych
Релиз Enya - Anywhere Is


1995 - Enya - Anywhere Is [Single]




Исполнитель/Artist: Enya
Альбом/Album: Anywhere Is [Single]
Год/Year: 1995
Жанр/Genre: new age, ambient, celts
Страна/Country: Германия
Рекорд-лейбл/Record label: WEA
Номер в каталоге/Catalogue #: WEA023CD 0630-12872-2
Формат/Format: Monkey's Audio (*.ape)
Качество/Quality: Lossless
Тип рипа/RIP Type: image+.cue
Продолжительность/Length: 00:09:41
Источник/Source: Из интернета
Размер/Size: 73.3 MB

Сканы в комплекте

Треклист

01 - Anywhere Is
02 - Boadicea
03 - Oriel Window
[свернуть]

youtube.com

[свернуть]

EAC лог

Exact Audio Copy V0.99 prebeta 3 from 28. July 2007

Отчёт EAC об извлечении, выполненном 10. февраля 2010, 20:07

Enya / Anywhere Is

Дисковод: PIONEER DVD-RW DVR-112D Adapter: 1 ID: 0

Режим чтения : Достоверность
Использование точного потока : Да
Отключение кэша аудио : Да
Использование указателей C2 : Нет

Коррекция смещения при чтении : 48
Способность читать области Lead-in и Lead-out : Нет
Заполнение пропущенных сэмплов тишиной : Да
Удаление блоков с тишиной в начале и конце : Нет
При вычислениях CRC использовались нулевые сэмплы : Да
Интерфейс : Встроенный Win32-интерфейс для Win NT/2000

Выходной формат : Внутренние WAV-операции
Формат сэмплов : 44.100 Гц; 16 бит; стерео


TOC извлечённого CD

Трек | Старт | Длительность | Начальный сектор | Конечный сектор
---------------------------------------------------------------------
1 | 0:00.00 | 3:46.10 | 0 | 16959
2 | 3:46.10 | 3:33.07 | 16960 | 32941
3 | 7:19.17 | 2:22.55 | 32942 | 43646


Характеристики диапазона извлечения и сообщения об ошибках

Выбранный диапазон

Имя файла I:\0002\Enya - 1995 - Anywhere Is\Anywhere Is.wav

Пиковый уровень 98.4 %
Качество диапазона 100.0 %
CRC теста 14547C30
CRC копии 14547C30
Копирование... OK

Ошибок не произошло


AccurateRip: сводка

Трек 1 точное извлечение (доверие 17) [06151261]
Трек 2 точное извлечение (доверие 17) [8A782CA8]
Трек 3 точное извлечение (доверие 17) [C6FEC666]

Все треки извлечены точно

Конец отчёта
[свернуть]

Файл CUE

REM GENRE Ambient
REM DATE 1995
REM DISCID 17024503
REM COMMENT "ExactAudioCopy v0.99pb3"
PERFORMER "Enya"
TITLE "Anywhere Is"
FILE "Anywhere Is.wav" WAVE
TRACK 01 AUDIO
TITLE "Anywhere Is"
PERFORMER "Enya"
INDEX 01 00:00:00
TRACK 02 AUDIO
TITLE "Boadicea"
PERFORMER "Enya"
INDEX 00 03:44:12
INDEX 01 03:46:10
TRACK 03 AUDIO
TITLE "Oriel Window"
PERFORMER "Enya"
INDEX 00 07:17:20
INDEX 01 07:19:17
[свернуть]

Лог проверки качества

AUDIOCHECKER v2.0 beta (build 457) - by Dester -
~~~~~~~~~~~~~~~~~~~~~~~~~~~~~~~~~~
-=== НЕ РЕДАКТИРУЙТЕ ЭТОТ ФАЙЛ! ===-

Путь: ...\1995 - Anywhere Is [Single]

1 -=- Anywhere Is.ape -=- CDDA (100%)

135172916
[свернуть]

Скачать Enya - Anywhere Is



password: sergych
[свернуть]
My opinion of release: 10/10
__________________
TAIFUN.Wings of Soul

Вверх
Похожие темы
Тема Автор Раздел Ответов Последнее сообщение
Сингл Enya - Exile sergych New age 0 17.09.2013 21:03
Альбом Enya - Enya sergych New age 0 17.09.2013 18:30
Альбом Enya - The Best Of Enya On Piano PUPOKIN New age 0 03.06.2009 09:37
Альбом Enya - And Winter Came... PUPOKIN New age 1 09.11.2008 14:21


Метки
1995 , ambient , anywhere is [single] , celts , enya , new age

Опции темы

Ваши права в разделе
Вы не можете создавать новые темы
Вы не можете отвечать в темах
Вы не можете прикреплять вложения
Вы не можете редактировать свои сообщения

Быстрый переход



Текущее время: 20:21. Часовой пояс GMT +3.
Powered by vBulletin® Version 3.8.10
Copyright ©2000 - 2018, vBulletin Solutions, Inc. Перевод: zCarot
© 2008 - 2018 Taifun With Song
Яндекс.Метрика