TAIFUN With Song
Навигация
Вернуться   TAIFUN With Song > Music (обменник) > Chill Out > New age
Расширенный поиск
New age New Age - в большинстве случаев музыка не импровизационная, а скорее выверенная заранее, поскольку она призвана создавать некие состояния души, позволяющие погружаться в собственное подсознание. Как это ни парадоксально, но некая часть этой спокойной и благородной музыки нашла свое прикладное применение в ряде сфер практической жизни. Ее проигрывают в аэропортах, в лифтах громадных офисных зданий, используют в медицине, везде, где необходимо создание душевного равновесия. New Age нельзя считать музыкой упрощенной, хотя часто встречаются образцы, где нет сложных гармоний или изощренных импровизаций. Ее сложность в глубине переживаний, доступной отнюдь не каждому. Нередко прослушивание такой музыки помогает человеку освободиться от стрессов каждодневной жизни большого города, очиститься, расслабиться и сберечь свою психику от срыва.

А знаете ли Вы, что...
Кто написал чёрный квадрат за четверть века до Малевича?
«Французский писатель и юморист Альфонс Алле за четверть века до Казимира Малевича написал чёрный квадрат — картину под названием «Битва негров в пещере глубокой ночью». Также он почти на семьдесят лет предвосхитил минималистическую музыкальную пьесу из одной тишины «4’33"» Джона Кейджа своим аналогичным произведением «Траурный марш для похорон великого глухого».»
 
Опции темы

  #1
Старый 21.09.2013, 14:17
sergych
Координатор
Досье
 
Аватар для sergych
Релиз Enya - The Christmas EP


1994 - Enya - The Christmas EP




Исполнитель/Artist: Enya
Альбом/Album: The Christmas EP
Год/Year: 1994
Жанр/Genre: new age, ambient, christmas, celts
Страна/Country: Канада
Рекорд-лейбл/Record label: WEA
Номер в каталоге/Catalogue #: CD 98393
Формат/Format: Free Lossless Audio Codec (*.flac)
Качество/Quality: Lossless
Тип рипа/RIP Type: image+.cue
Продолжительность/Length: 00:16:41
Источник/Source: Из интернета
Размер/Size: 108.8 MB

Сканы в комплекте

Треклист

01 - Oнche Chiun (Silent Night)
02 - As Baile
03 - 'S Fagaim Mo Bhaile
04 - Ebudae
05 - The Celts
[свернуть]

youtube.com

[свернуть]

EAC лог

Exact Audio Copy V0.99 prebeta 4 from 23. January 2008

EAC extraction logfile from 7. February 2009, 1:38

Enya / The Christmas EP

Used drive : _NEC DVD_RW ND-3500AG Adapter: 0 ID: 3

Read mode : Secure
Utilize accurate stream : Yes
Defeat audio cache : No
Make use of C2 pointers : Yes

Read offset correction : 48
Overread into Lead-In and Lead-Out : No
Fill up missing offset samples with silence : Yes
Delete leading and trailing silent blocks : No
Null samples used in CRC calculations : Yes
Used interface : Native Win32 interface for Win NT & 2000

Used output format : Internal WAV Routines
Sample format : 44.100 Hz; 16 Bit; Stereo


TOC of the extracted CD

Track | Start | Length | Start sector | End sector
---------------------------------------------------------
1 | 0:00.00 | 3:46.72 | 0 | 17021
2 | 3:46.72 | 4:05.10 | 17022 | 35406
3 | 7:52.07 | 3:58.25 | 35407 | 53281
4 | 11:50.32 | 1:55.43 | 53282 | 61949
5 | 13:46.00 | 2:55.55 | 61950 | 75129


Range status and errors

Selected range

Filename K:\Torrent\ENYA - The Christmas EP\Enya - The Christmas EP.wav

Peak level 100.0 %
Range quality 99.9 %
Test CRC E984525B
Copy CRC E984525B
Copy OK

No errors occurred


AccurateRip summary

Track 1 accurately ripped (confidence 6) [48D85DFC]
Track 2 accurately ripped (confidence 6) [7BF07694]
Track 3 accurately ripped (confidence 4) [70291E16]
Track 4 accurately ripped (confidence 6) [999A6617]
Track 5 accurately ripped (confidence 5) [229AAEC9]

All tracks accurately ripped

End of status report
[свернуть]

Файл CUE

REM GENRE "New Age"
REM DATE 1994
REM DISCID 3903E905
REM COMMENT "ExactAudioCopy v0.99pb4"
PERFORMER "Enya"
TITLE "The Christmas EP"
FILE "Enya - The Christmas EP.wav" WAVE
TRACK 01 AUDIO
TITLE "Oнche Chiъn (Silent Night)"
PERFORMER "Enya"
INDEX 01 00:00:00
TRACK 02 AUDIO
TITLE "As Baile"
PERFORMER "Enya"
INDEX 00 03:45:47
INDEX 01 03:46:72
TRACK 03 AUDIO
TITLE "'S Fagaim Mo Bhaile"
PERFORMER "Enya"
INDEX 00 07:50:32
INDEX 01 07:52:07
TRACK 04 AUDIO
TITLE "Ebudж"
PERFORMER "Enya"
INDEX 00 11:49:10
INDEX 01 11:50:32
TRACK 05 AUDIO
TITLE "The Celts"
PERFORMER "Enya"
INDEX 00 13:44:20
INDEX 01 13:46:00
[свернуть]

Лог проверки качества

AUDIOCHECKER v2.0 beta (build 457) - by Dester -
~~~~~~~~~~~~~~~~~~~~~~~~~~~~~~~~~~
-=== НЕ РЕДАКТИРУЙТЕ ЭТОТ ФАЙЛ! ===-

Путь: ...\1994 - The Christmas [EP]

1 -=- Enya - The Christmas EP.flac -=- CDDA (100%)

34166420
[свернуть]

Скачать Enya - The Christmas EP



password: sergych
[свернуть]
My opinion of release: 10/10
__________________
TAIFUN.Wings of Soul

Вверх
Похожие темы
Тема Автор Раздел Ответов Последнее сообщение
Альбом Enya - Enya sergych New age 0 17.09.2013 18:30
Альбом Enya - Amarantine sergych New age 0 15.09.2013 12:06
Альбом Enya - The Best Of Enya On Piano PUPOKIN New age 0 03.06.2009 09:37
Альбом Enya - A Day Without Rain PUPOKIN New age 0 25.05.2009 10:51


Метки
1994 , ambient , celts , christmas , enya , new age , the christmas ep

Опции темы

Ваши права в разделе
Вы не можете создавать новые темы
Вы не можете отвечать в темах
Вы не можете прикреплять вложения
Вы не можете редактировать свои сообщения

Быстрый переход



Текущее время: 04:55. Часовой пояс GMT +3.
Powered by vBulletin® Version 3.8.10
Copyright ©2000 - 2018, vBulletin Solutions, Inc. Перевод: zCarot
© 2008 - 2018 Taifun With Song
Яндекс.Метрика