TAIFUN With Song
Навигация
Вернуться   TAIFUN With Song > Music (обменник) > Chill Out > New age
Расширенный поиск
New age New Age - в большинстве случаев музыка не импровизационная, а скорее выверенная заранее, поскольку она призвана создавать некие состояния души, позволяющие погружаться в собственное подсознание. Как это ни парадоксально, но некая часть этой спокойной и благородной музыки нашла свое прикладное применение в ряде сфер практической жизни. Ее проигрывают в аэропортах, в лифтах громадных офисных зданий, используют в медицине, везде, где необходимо создание душевного равновесия. New Age нельзя считать музыкой упрощенной, хотя часто встречаются образцы, где нет сложных гармоний или изощренных импровизаций. Ее сложность в глубине переживаний, доступной отнюдь не каждому. Нередко прослушивание такой музыки помогает человеку освободиться от стрессов каждодневной жизни большого города, очиститься, расслабиться и сберечь свою психику от срыва.

А знаете ли Вы, что...
Как выбрали длительность звучания компакт-диска?
«Вместимость компакт-диска была выбрана японскими разработчиками так, чтобы на нём полностью поместилась девятая симфония Бетховена — любимое произведение вице-президента Сони. Хотя итоговая длительность диска в 74 минуты, возникшая в результате разных технических согласований, была всё же на полминуты меньше длительности симфонии.»
 
Опции темы

  #1
Старый 21.09.2013, 12:27
sergych
Координатор
Досье
 
Аватар для sergych
Релиз Enya - Oiche Chiun (Silent Night)


1992 - Enya - Oiche Chiun (Silent Night)




Исполнитель/Artist: Enya
Альбом/Album: Oiche Chiun (Silent Night) [Single]
Год/Year: 1992
Жанр/Genre: new age, ambient, christmas
Страна/Country: Соединённые Штаты
Рекорд-лейбл/Record label: Reprise Records
Номер в каталоге/Catalogue #: 9 40660-2
Формат/Format: Free Lossless Audio Codec (*.flac)
Качество/Quality: Lossless
Тип рипа/RIP Type: tracks+.cue
Продолжительность/Length: 00:10:06
Источник/Source: Из интернета
Размер/Size: 68.7 MB

Сканы в комплекте

Треклист

01 - Oiche Chiun (Silent Night)
02 - Oriel Window
03 - 'S fagaim mo bhaile
[свернуть]

youtube.com

[свернуть]

EAC лог

Exact Audio Copy V0.99 prebeta 5 from 4. May 2009

EAC extraction logfile from 12. March 2011, 14:25

Enya / Oiche Chiun (Silent Night)

Used drive : Optiarc DVD RW AD-7170A Adapter: 0 ID: 0

Read mode : Secure
Utilize accurate stream : Yes
Defeat audio cache : Yes
Make use of C2 pointers : No

Read offset correction : 48
Overread into Lead-In and Lead-Out : No
Fill up missing offset samples with silence : Yes
Delete leading and trailing silent blocks : No
Null samples used in CRC calculations : Yes
Used interface : Native Win32 interface for Win NT & 2000
Gap handling : Appended to previous track

Used output format : User Defined Encoder
Selected bitrate : 1024 kBit/s
Quality : High
Add ID3 tag : Yes
Command line compressor : D:\PORTABLE\audio\Exact Audio Copy\Codecs\Flac\flac.exe
Additional command line options : -8 -V -T "ARTIST=%a" -T "TITLE=%t" -T "ALBUM=%g" -T "DATE=%y" -T "TRACKNUMBER=%n" -T "GENRE=%m" -T "COMMENT=%e" %s -o %d


TOC of the extracted CD

Track | Start | Length | Start sector | End sector
---------------------------------------------------------
1 | 0:00.32 | 3:47.10 | 32 | 17066
2 | 3:47.42 | 2:23.28 | 17067 | 27819
3 | 6:10.70 | 3:57.32 | 27820 | 45626


Track 1

Filename V:\Enya - (1992) Oiche Chiun (Silent Night, CDM)\01. Enya - Oiche Chiun (Silent Night).wav

Pre-gap length 0:00:02.32

Peak level 92.8 %
Track quality 99.9 %
Test CRC C0DA89BD
Copy CRC C0DA89BD
Accurately ripped (confidence 20) [E49185CD]
Copy OK

Track 2

Filename V:\Enya - (1992) Oiche Chiun (Silent Night, CDM)\02. Enya - Oriel Window.wav

Pre-gap length 0:00:01.07

Peak level 94.2 %
Track quality 100.0 %
Test CRC 2AE58AAB
Copy CRC 2AE58AAB
Accurately ripped (confidence 20) [7E3BEC36]
Copy OK

Track 3

Filename V:\Enya - (1992) Oiche Chiun (Silent Night, CDM)\03. Enya - 'S fagaim mo bhaile.wav

Peak level 92.6 %
Track quality 99.9 %
Test CRC F47EA70B
Copy CRC F47EA70B
Accurately ripped (confidence 20) [9DD1F704]
Copy OK


All tracks accurately ripped

No errors occurred

End of status report
[свернуть]

Файл CUE

REM GENRE Celtic
REM DATE 1992
REM DISCID 1B026003
REM COMMENT "ExactAudioCopy v0.99pb5"
PERFORMER "Enya"
TITLE "Oiche Chiun (Silent Night)"
FILE "01 - Oiche Chiun (Silent Night).wav" WAVE
TRACK 01 AUDIO
TITLE "Oiche Chiun (Silent Night)"
PERFORMER "Enya"
PREGAP 00:00:32
INDEX 01 00:00:00
TRACK 02 AUDIO
TITLE "Oriel Window"
PERFORMER "Enya"
INDEX 00 03:46:03
FILE "02 - Oriel Window.wav" WAVE
INDEX 01 00:00:00
FILE "03 - 'S fagaim mo bhaile.wav" WAVE
TRACK 03 AUDIO
TITLE "'S fagaim mo bhaile"
PERFORMER "Enya"
INDEX 01 00:00:00
[свернуть]

Лог проверки качества

AUDIOCHECKER v2.0 beta (build 457) - by Dester -
~~~~~~~~~~~~~~~~~~~~~~~~~~~~~~~~~~
-=== НЕ РЕДАКТИРУЙТЕ ЭТОТ ФАЙЛ! ===-

Путь: ...\1992 - Oiche Chiun (Silent Night, CDM)

1 -=- 01 - Oiche Chiun (Silent Night).flac -=- CDDA (100%)
2 -=- 02 - Oriel Window.flac -=- CDDA (100%)
3 -=- 03 - 'S fagaim mo bhaile.flac -=- CDDA (100%)

Сводка 100,00% CDDA

206186660
[свернуть]

Скачать Enya - Oiche Chiun (Silent Night)



password: sergych
[свернуть]
My opinion of release: 10/10
__________________
TAIFUN.Wings of Soul

Вверх
Похожие темы
Тема Автор Раздел Ответов Последнее сообщение
Альбом Enya - Enya sergych New age 0 17.09.2013 18:30
Альбом Enya - The Best Of Enya On Piano PUPOKIN New age 0 03.06.2009 09:37
Альбом Enya - A Day Without Rain PUPOKIN New age 0 25.05.2009 10:51
Сингл Jade & Rusher / Silent Extent - Silent Hell / Fallin Down DarkDan Drum & Bass 0 24.04.2008 14:23


Метки
1992 , ambient , christmas , enya , new age , oiche chiun (silent night) [single]

Опции темы

Ваши права в разделе
Вы не можете создавать новые темы
Вы не можете отвечать в темах
Вы не можете прикреплять вложения
Вы не можете редактировать свои сообщения

Быстрый переход



Текущее время: 15:46. Часовой пояс GMT +3.
Powered by vBulletin® Version 3.8.10
Copyright ©2000 - 2018, vBulletin Solutions, Inc. Перевод: zCarot
© 2008 - 2018 Taifun With Song
Яндекс.Метрика